Shattered Eyes / Prelude to the Atrocious Path of Humanity
Жанр: Brutal Death Metal
Носитель: CD
Страна-производитель диска (релиза): Japan
Год издания: 2014
Издатель (лейбл): Amputated Vein Records
Номер по каталогу: AVR050
Страна исполнителя (группы): USA
Аудиокодек: FLAC (*.flac)
Тип рипа: image+.cue
Битрейт аудио: lossless
Продолжительность: 27:08
Источник (релизер): Original CD
Наличие сканов в содержимом раздачи: да
Треклист:
1. Crime and Punishment 02:51
2. The Day That Humanity Failed 03:28
3. Weight of Power 03:21
4. Homo Agresivus Depredatorius 03:20
5. Shores of Acheron 01:50
6. Monoliths of Delusion 03:43
7. Subconscious Epiphany 03:13
8. Perpetual Torment 03:46
9. Prelude to the Atrocious Path of Humanity 01:37

Лог создания рипа

Exact Audio Copy V1.3 from 2. September 2016
EAC extraction logfile from 18. November 2017, 15:06
Shattered Eyes / Prelude To The Atrocious Path Of Humanity
Used drive : ATAPI DVD A DH16A6L Adapter: 1 ID: 2
Read mode : SecureUtilize accurate stream : YesDefeat audio cache : YesMake use of C2 pointers : No
Read offset correction : 6Overread into Lead-In and Lead-Out : NoFill up missing offset samples with silence : YesDelete leading and trailing silent blocks : NoNull samples used in CRC calculations : YesUsed interface : Native Win32 interface for Win NT & 2000
Used output format : User Defined EncoderSelected bitrate : 128 kBit/sQuality : HighAdd ID3 tag : NoCommand line compressor : C:\Program Files (x86)\FLAC\flac.exeAdditional command line options : -V -8 %source%
TOC of the extracted CD
Track | Start | Length | Start sector | End sector --------------------------------------------------------- 1 | 0:00.00 | 2:51.23 | 0 | 12847 2 | 2:51.23 | 3:27.53 | 12848 | 28425 3 | 6:19.01 | 3:20.39 | 28426 | 43464 4 | 9:39.40 | 3:19.45 | 43465 | 58434 5 | 12:59.10 | 1:50.32 | 58435 | 66716 6 | 14:49.42 | 3:42.41 | 66717 | 83407 7 | 18:32.08 | 3:13.31 | 83408 | 97913 8 | 21:45.39 | 3:46.26 | 97914 | 114889 9 | 25:31.65 | 1:36.42 | 114890 | 122131
Range status and errors
Selected range
Filename E:\Temp Documents\из И-Нета\TORRENTS\Раздача\Shattered Eyes\2014 Prelude To The Atrocious Path Of Humanity\Shattered Eyes - Prelude To The Atrocious Path Of Humanity.wav
Peak level 100.0 % Extraction speed 4.7 X Range quality 99.9 % Test CRC 01D87E27 Copy CRC 01D87E27 Copy OK
No errors occurred
AccurateRip summary
Track 1 not present in databaseTrack 2 not present in databaseTrack 3 not present in databaseTrack 4 not present in databaseTrack 5 not present in databaseTrack 6 not present in databaseTrack 7 not present in databaseTrack 8 not present in databaseTrack 9 not present in database
None of the tracks are present in the AccurateRip database
End of status report
---- CUETools DB Plugin V2.1.6
[CTDB TOCID: 4CMCzKnyt2bIMvTeb5PWLF3OEO8-] disk not present in databaseSubmit result: 4CMCzKnyt2bIMvTeb5PWLF3OEO8- has been uploaded
==== Log checksum 6AF771EF0D525000EB9CB28F21815756B291A222DCD43B5FB115EA266E4E8D52 ====

Содержание индексной карты (.CUE)

REM GENRE "Brutal Death Metal"REM DATE 2014REM DISCID 67065C09REM COMMENT "ExactAudioCopy v1.3"PERFORMER "Shattered Eyes"TITLE "Prelude To The Atrocious Path Of Humanity"REM COMPOSER ""FILE "Shattered Eyes - Prelude To The Atrocious Path Of Humanity.flac" WAVE  TRACK 01 AUDIO    TITLE "Crime And Punishment"    PERFORMER "Shattered Eyes"    REM COMPOSER ""    INDEX 01 00:00:00  TRACK 02 AUDIO    TITLE "The Day That Humanity Failed"    PERFORMER "Shattered Eyes"    REM COMPOSER ""    INDEX 01 02:51:23  TRACK 03 AUDIO    TITLE "Weight Of Power"    PERFORMER "Shattered Eyes"    REM COMPOSER ""    INDEX 01 06:19:01  TRACK 04 AUDIO    TITLE "Homo Agresivus Depredatorius"    PERFORMER "Shattered Eyes"    REM COMPOSER ""    INDEX 01 09:39:40  TRACK 05 AUDIO    TITLE "Shores Of Acheron"    PERFORMER "Shattered Eyes"    REM COMPOSER ""    INDEX 01 12:59:10  TRACK 06 AUDIO    TITLE "Monoliths Of Delusion"    PERFORMER "Shattered Eyes"    REM COMPOSER ""    INDEX 01 14:49:42  TRACK 07 AUDIO    TITLE "Subconscious Epiphany"    PERFORMER "Shattered Eyes"    REM COMPOSER ""    INDEX 01 18:32:08  TRACK 08 AUDIO    TITLE "Perpetual Torment"    PERFORMER "Shattered Eyes"    REM COMPOSER ""    INDEX 01 21:45:39  TRACK 09 AUDIO    TITLE "Prelude To The Atrocious Path Of Humanity"    PERFORMER "Shattered Eyes"    REM COMPOSER ""    INDEX 01 25:31:65

To download the file disable ad blocking, and reload the page.

disable adblock How to disable ad blocking?

Download by magnet link 354 MB Download Torrent

Login using:

Similar topics

(Brutal Death Metal) Castrensis - Hierarchies - 2015, MP3, 320 kbps
 59 MB   0 | 0   26-May-17 02:39   1


   
Current time is: 23-Sep 15:46 :: All times are UTC ± 0