Deconversion / Incertitude of Existence
Жанр: Technical Brutal Death Metal
Носитель: CD
Страна-производитель диска (релиза): Japan
Год издания: 2014
Издатель (лейбл): Amputated Vein Records
Номер по каталогу: AVR056
Страна исполнителя (группы): Mexico
Аудиокодек: FLAC (*.flac)
Тип рипа: image+.cue
Битрейт аудио: lossless
Продолжительность: 20:10
Источник (релизер): Original CD
Наличие сканов в содержимом раздачи: да
Треклист:
1. Inherent Suffering 02:12
2. Relentless and Dismembered 02:19
3. Translated Thoughts 03:42
4. Dawn of Hallucination 02:30
5. Incertitude of Existence 03:32
6. Internal Cosmic Intervention 03:03
7. A Trance in Deconversion 02:53

Лог создания рипа

Exact Audio Copy V1.3 from 2. September 2016
EAC extraction logfile from 18. November 2017, 13:20
Deconversion / Incertitude Of Existence
Used drive : ATAPI DVD A DH16A6L Adapter: 1 ID: 2
Read mode : SecureUtilize accurate stream : YesDefeat audio cache : YesMake use of C2 pointers : No
Read offset correction : 6Overread into Lead-In and Lead-Out : NoFill up missing offset samples with silence : YesDelete leading and trailing silent blocks : NoNull samples used in CRC calculations : YesUsed interface : Native Win32 interface for Win NT & 2000
Used output format : User Defined EncoderSelected bitrate : 128 kBit/sQuality : HighAdd ID3 tag : NoCommand line compressor : C:\Program Files (x86)\FLAC\flac.exeAdditional command line options : -V -8 %source%
TOC of the extracted CD
Track | Start | Length | Start sector | End sector --------------------------------------------------------- 1 | 0:00.00 | 2:12.03 | 0 | 9902 2 | 2:12.03 | 2:19.36 | 9903 | 20363 3 | 4:31.39 | 3:41.43 | 20364 | 36981 4 | 8:13.07 | 2:29.66 | 36982 | 48222 5 | 10:42.73 | 3:31.54 | 48223 | 64101 6 | 14:14.52 | 3:03.00 | 64102 | 77826 7 | 17:17.52 | 2:52.47 | 77827 | 90773
Range status and errors
Selected range
Filename E:\Temp Documents\из И-Нета\TORRENTS\Раздача\Deconversion\2014 Incertitude Of Existence\Deconversion - Incertitude Of Existence.wav
Peak level 100.0 % Extraction speed 4.6 X Range quality 100.0 % Test CRC 26839FB0 Copy CRC 26839FB0 Copy OK
No errors occurred
AccurateRip summary
Track 1 accurately ripped (confidence 1) [D62F2EF0] (AR v2)Track 2 accurately ripped (confidence 1) [90447A4A] (AR v2)Track 3 accurately ripped (confidence 1) [FE4942DA] (AR v2)Track 4 accurately ripped (confidence 1) [0641A44F] (AR v2)Track 5 accurately ripped (confidence 1) [DA0956A0] (AR v2)Track 6 accurately ripped (confidence 1) [3F6301B7] (AR v2)Track 7 accurately ripped (confidence 1) [9A565019] (AR v2)
All tracks accurately ripped
End of status report
---- CUETools DB Plugin V2.1.6
[CTDB TOCID: xVFnuzqRONh7pe8C94dxF_LnUE0-] foundSubmit result: xVFnuzqRONh7pe8C94dxF_LnUE0- has been confirmedTrack | CTDB Status 1 | (2/2) Accurately ripped 2 | (2/2) Accurately ripped 3 | (2/2) Accurately ripped 4 | (2/2) Accurately ripped 5 | (2/2) Accurately ripped 6 | (2/2) Accurately ripped 7 | (2/2) Accurately ripped
==== Log checksum 7247D6D87D286AAB7382C1F5C4F5212CF76A434AC1B1D8D93A79EA3D6DC68E4E ====

Содержание индексной карты (.CUE)

REM GENRE "Technical/ Brutal Death Metal"REM DATE 2014REM DISCID 5604BA07REM COMMENT "ExactAudioCopy v1.3"PERFORMER "Deconversion"TITLE "Incertitude Of Existence"REM COMPOSER ""FILE "Deconversion - Incertitude Of Existence.flac" WAVE  TRACK 01 AUDIO    TITLE "Inherent Suffering"    PERFORMER "Deconversion"    REM COMPOSER ""    INDEX 01 00:00:00  TRACK 02 AUDIO    TITLE "Relentless And Dismembered"    PERFORMER "Deconversion"    REM COMPOSER ""    INDEX 01 02:12:03  TRACK 03 AUDIO    TITLE "Translated Thoughts"    PERFORMER "Deconversion"    REM COMPOSER ""    INDEX 01 04:31:39  TRACK 04 AUDIO    TITLE "Dawn Of Hallucination"    PERFORMER "Deconversion"    REM COMPOSER ""    INDEX 01 08:13:07  TRACK 05 AUDIO    TITLE "Incertitude Of Existence"    PERFORMER "Deconversion"    REM COMPOSER ""    INDEX 01 10:42:73  TRACK 06 AUDIO    TITLE "Internal Cosmic Intervention"    PERFORMER "Deconversion"    REM COMPOSER ""    INDEX 01 14:14:52  TRACK 07 AUDIO    TITLE "A Trance In Deconversion"    PERFORMER "Deconversion"    REM COMPOSER ""    INDEX 01 17:17:52

To download the file disable ad blocking, and reload the page.

disable adblock How to disable ad blocking?

Download by magnet link 221 MB Download Torrent

Login using:

Similar topics



   
Current time is: 20-Sep 00:22 :: All times are UTC ± 0