Название: Live From The Royal Albert Hall
Исполнитель: Joe Bonamassa
Год выпуска: 2010
Жанр: Blues-Rock
Продолжительность: 02:12:05
Концерт Джо Бонамасса в Лондонском королевском Альберт Холле 4 мая 2009 года, самом престижном концертном комплексе мира.
Были приглашены Эрик Клэптон и Пол Джонс.
Состав:
Joe Bonamassa - Guitar and vocals
Rick Melick - Keyboards, tambourine, backing vocal
Carmine Rojas - Bass guitar
Bogie Bowles and Anton Fig - Drums
Lee Thornburg - Brass arrangements and trumpet
Sean Freeman - Saxophone
Mike Feltham - Trombone

Гости
:
Eric Clapton - Guitar and vocals
Paul Jones - Harmonica

Качество: BDRip 1080p
Формат: MKV
Видеокодек: H264
Аудиокодек: DTS, PCM
Видео: MPEG4 Video (H264), 1920x1080, 23.976fps, 10000 kbps
Аудио #1: DTS, 48000 Hz, 6ch, 1536 kbps
Аудио #2: PCM, 48000 Hz, 2ch, 1536 kbps

Трек-лист:

01. 72nd St. Subway Blues
02. Slow Train
03. Cradle Rock
04. When The Fire Hits The Sea
05. Midnight Blues
06. Dust Bowl
07. The River
08. I’ll Take Care Of You (with Beth Hart)
09. Sinner’s Prayer (with Beth Hart)
10. You Better Watch Yourself
11. Steal Your Heart Away
12. Bird On A Wire
13. Down Around My Place (with John Hiatt)
14. I Know A Place (with John Hiatt)
15. Blue And Evil
16. Walk In My Shadows (with Paul Rodgers)
17. Fire And Water (with Paul Rodgers)
18. Mountain Time
19. Young Man Blues

MediaInfo:

General
Unique ID : 217907482215199619148661309752515221644 (0xA3EF745ACBA0CE0DABEA92EEE6DBD88C)
Complete name : D:Torrent22010.Joe.Bonamassa.Royal.Albert.Hall.mkv
Format : Matroska
Format version : Version 4 / Version 2
File size : 12.0 GiB
Duration : 2 h 12 min
Overall bit rate : 13.0 Mb/s
Movie name : 2010 Joe Bonamassa - Live from the Royal Albert Hall/ispolkom
Encoded date : UTC 2017-11-18 14:07:00
Writing application : mkvmerge v8.3.0 ('Over the Horizon') 64bit
Writing library : libebml v1.3.1 + libmatroska v1.4.2
Video
ID : 1
Format : AVC
Format/Info : Advanced Video Codec
Format profile : High@L4.1
Format settings : CABAC / 4 Ref Frames
Format settings, CABAC : Yes
Format settings, RefFrames : 4 frames
Codec ID : V_MPEG4/ISO/AVC
Duration : 2 h 12 min
Bit rate : 10 000 kb/s
Width : 1 920 pixels
Height : 1 080 pixels
Display aspect ratio : 16:9
Frame rate mode : Constant
Frame rate : 23.976 (24000/1001) FPS
Color space : YUV
Chroma subsampling : 4:2:0
Bit depth : 8 bits
Scan type : Progressive
Bits/(Pixel*Frame) : 0.201
Stream size : 9.22 GiB (77%)
Title : 2010 Joe Bonamassa - Live from the Royal Albert Hall
Writing library : x264 core 146 r2538 121396c
Encoding settings : cabac=1 / ref=4 / deblock=1:-1:-1 / analyse=0x3:0x133 / me=umh / subme=11 / psy=1 / psy_rd=1.11:0.15 / mixed_ref=1 / me_range=32 / chroma_me=1 / trellis=2 / 8x8dct=1 / cqm=0 / deadzone=21,11 / fast_pskip=0 / chroma_qp_offset=-3 / threads=18 / lookahead_threads=3 / sliced_threads=0 / nr=0 / decimate=1 / interlaced=0 / bluray_compat=0 / constrained_intra=0 / bframes=8 / b_pyramid=2 / b_adapt=2 / b_bias=0 / direct=3 / weightb=1 / open_gop=0 / weightp=2 / keyint=250 / keyint_min=23 / scenecut=40 / intra_refresh=0 / rc=2pass / mbtree=0 / bitrate=10000 / ratetol=1.0 / qcomp=0.60 / qpmin=0 / qpmax=69 / qpstep=4 / cplxblur=20.0 / qblur=0.5 / ip_ratio=1.40 / pb_ratio=1.30 / aq=2:1.00
Language : English
Default : Yes
Forced : No
Audio #1
ID : 2
Format : DTS
Format/Info : Digital Theater Systems
Mode : 16
Format settings, Endianness : Big
Codec ID : A_DTS
Duration : 2 h 12 min
Bit rate mode : Constant
Bit rate : 1 509 kb/s
Channel(s) : 6 channels
Channel positions : Front: L C R, Side: L R, LFE
Sampling rate : 48.0 kHz
Frame rate : 93.750 FPS (512 SPF)
Bit depth : 24 bits
Compression mode : Lossy
Stream size : 1.39 GiB (12%)
Title : DTS 5.1
Language : English
Default : Yes
Forced : No
Audio #2
ID : 3
Format : PCM
Codec ID : A_PCM/INT/LIT
Duration : 2 h 12 min
Bit rate mode : Constant
Bit rate : 1 536 kb/s
Channel(s) : 2 channels
Sampling rate : 48.0 kHz
Frame rate : 32.000 FPS (1500 SPF)
Bit depth : 16 bits
Stream size : 1.42 GiB (12%)
Title : PCM 2.0
Language : English
Default : No
Forced : No
Menu
00:00:00.000 : en:Chapter 01
00:02:39.826 : en:Chapter 02
00:06:07.492 : en:Chapter 03
00:12:55.441 : en:Chapter 04
00:15:51.784 : en:Chapter 05
00:23:09.638 : en:Chapter 06
00:29:30.977 : en:Chapter 07
00:35:13.319 : en:Chapter 08
00:36:32.064 : en:Chapter 09
00:42:10.528 : en:Chapter 10
00:47:18.252 : en:Chapter 11
00:55:42.088 : en:Chapter 12
00:56:04.110 : en:Chapter 13
00:57:24.399 : en:Chapter 14
01:02:00.258 : en:Chapter 15
01:08:52.211 : en:Chapter 16
01:09:52.021 : en:Chapter 17
01:14:09.153 : en:Chapter 18
01:23:24.958 : en:Chapter 19
01:28:43.651 : en:Chapter 20
01:36:49.345 : en:Chapter 21
01:48:16.907 : en:Chapter 22
01:59:09.851 : en:Chapter 23
02:10:11.428 : en:Chapter 24

Скриншоты:


To download the file disable ad blocking, and reload the page.

disable adblock How to disable ad blocking?

Download by magnet link 12.03 GB Download Torrent

Login using:

Similar topics

Joe Bonamassa: Beacon Theatre - Live From New York (2012) BDRip 1080p
 12.58 GB   0 | 0   18-Nov-17 14:30   0


   
Current time is: 15-Nov 21:50 :: All times are UTC + 3