Человек человеку волк / Dog Eat Dog
Страна: США
Жанр: триллер, драма, криминал
Год выпуска: 2016
Продолжительность: 01:33:00
Перевод: Любительский (многоголосый закадровый) Синема УС
Субтитры: нет
Оригинальная аудиодорожка: английский
Режиссер: Пол Шредер / Paul Schrader
В ролях: Николас Кейдж, Уиллем Дефо, Мэтт Кук, Омар Дж. Дорси, Луиса Краузе, Мелисса Болона, Рейнальдо Гальегос, Челци Линн, Брюс Рейзен, Джефф Хиллиард
Описание: Троица уголовников получает задание от наркобарона — похитить сына его бывшего партнера. Когда дело идет наперекосяк, похитители пускаются в бега, готовые на всё, лишь бы вновь не оказаться за решеткой.
Качество видео: HDRip
Формат видео: AVI
Видео: XviD, 720x304 (2,36:1), 23,976 fps, ~1800 kbps
Аудио 1: AC3 Dolby Digital, 48 kHz, 2 ch, 192 kbps (Rus)
Аудио 2: AC3 Dolby Digital, 48 kHz, 2 ch, 192 kbps (Eng)

MediaInfo

ОбщееПолное имя                               : Dog.Eat.Dog.2016.aviФормат                                   : AVIФормат/Информация                        : Audio Video InterleaveРазмер файла                             : 1,46 ГбайтПродолжительность                        : 1 ч. 33 м.Общий поток                              : 2251 Кбит/секПрограмма кодирования                    : VirtualDubMod 1.5.10.2 (build 2542/release)Библиотека кодирования                   : VirtualDubMod build 2542/release
ВидеоИдентификатор : 0Формат : MPEG-4 VisualПрофиль формата : Advanced Simple@L5Параметр BVOP формата : 2Параметр QPel формата : НетПараметр GMC формата : Без точки переходаПараметр матрицы формата : ВыборочнаяИдентификатор кодека : XVIDИдентификатор кодека/Подсказка : XviDПродолжительность : 1 ч. 32 м.Битрейт : 1853 Кбит/секШирина : 720 пикселейВысота : 304 пикселяСоотношение сторон : 2,35:1Частота кадров : 23,976 кадра/секЦветовое пространство : YUVСубдискретизация насыщенности : 4:2:0Битовая глубина : 8 битТип развёртки : ПрогрессивнаяМетод сжатия : С потерямиБит/(Пиксели*Кадры) : 0.353Размер потока : 1,20 Гбайт (82%)Библиотека кодирования : XviD 65
Аудио #1Идентификатор : 1Формат : AC-3Формат/Информация : Audio Coding 3Расширение режима : CM (complete main)Параметр Endianness формата : BigИдентификатор кодека : 2000Продолжительность : 1 ч. 33 м.Вид битрейта : ПостоянныйБитрейт : 192 Кбит/секКаналы : 2 каналаРасположение каналов : Front: L RЧастота : 48,0 КГцБитовая глубина : 16 битМетод сжатия : С потерямиРазмер потока : 128 Мбайт (9%)Выравнивание : Разделение по промежуткамПродолжительность промежутка : 42 мс. (1,00 видеокадр)Время предзагрузки промежутка : 500 мс.
Аудио #2Идентификатор : 2Формат : AC-3Формат/Информация : Audio Coding 3Расширение режима : CM (complete main)Параметр Endianness формата : BigИдентификатор кодека : 2000Продолжительность : 1 ч. 33 м.Вид битрейта : ПостоянныйБитрейт : 192 Кбит/секКаналы : 2 каналаРасположение каналов : Front: L RЧастота : 48,0 КГцБитовая глубина : 16 битМетод сжатия : С потерямиРазмер потока : 128 Мбайт (9%)Выравнивание : Разделение по промежуткамПродолжительность промежутка : 42 мс. (1,00 видеокадр)Время предзагрузки промежутка : 500 мс.

Скриншоты



To download the file disable ad blocking, and reload the page.

disable adblock How to disable ad blocking?

Download by magnet link 1.46 GB Download Torrent

Login using:

Similar topics



   
Current time is: 15-Nov 22:37 :: All times are UTC + 3