Sharon Jones & The Dap-Kings / Soul of a Woman
Жанр: Soul, Funk, R&B
Носитель: WEB
Год издания: 2017
Издатель (лейбл): Daptone Records
Страна исполнителя (группы): US
Аудиокодек: FLAC (*.flac) | MP3
Тип рипа: tracks
Битрейт аудио: lossless
Продолжительность: 00:35:44
Источник (релизер): sddd
Наличие сканов в содержимом раздачи: нет
Треклист:
01. Matter of Time (03:22)
02. Sail On! (03:00)
03. Just Give Me Your Time (02:30)
04. Come and Be a Winner (02:57)
05. Rumors (02:34)
06. Pass Me By (03:20)
07. Searching for a New Day (03:15)
08. These Tears (No Longer for You) (03:36)
09. When I Saw Your Face (03:24)
10. Girl! (You Got to Forgive Him) (04:09)
11. Call on God (03:38)
-Покойся с миром Ms. Sharon Jones

Audiochecker

Lossless Audio Checker 2.0.3 logfile from Sat, 18 Nov 2017 15:06:35 GMT
File: 01 - Matter of TimeResult: Clean
File: 02 - Sail On!Result: Clean
File: 03 - Just Give Me Your TimeResult: Clean
File: 04 - Come and Be a WinnerResult: Clean
File: 05 - RumorsResult: Clean
File: 06 - Pass Me ByResult: Clean
File: 07 - Searching for a New DayResult: Clean
File: 08 - These Tears (No Longer for You)Result: Clean
File: 09 - When I Saw Your FaceResult: Clean
File: 10 - Girl! (You Got to Forgive Him)Result: Clean
File: 11 - Call on GodResult: Clean
Checked: 11 | Clean: 11 | Transcoded: 0 | Upscaled: 0 | Upsampled: 0 | Error: 0

DR log

----------------------------------------------------------------------------------------------TT DR Offline Meter 1.1---------------------------------------------------------------------------------------------- Analyzed folder: Sharon Jones & The Dap-Kings - Soul of a Woman (2017) [WEB] FLAC---------------------------------------------------------------------------------------------- DR  Peak  RMS  Filename----------------------------------------------------------------------------------------------
DR8 -0.28 dB -11.02 dB 01 - Matter of Time DR9 -0.28 dB -11.51 dB 02 - Sail On! DR10 -0.26 dB -12.98 dB 03 - Just Give Me Your Time DR9 -0.38 dB -11.40 dB 04 - Come and Be a Winner DR9 -0.23 dB -11.45 dB 05 - Rumors DR10 -0.30 dB -12.69 dB 06 - Pass Me By DR10 -0.28 dB -11.66 dB 07 - Searching for a New Day DR9 -0.28 dB -11.47 dB 08 - These Tears (No Longer for You) DR9 -0.57 dB -12.60 dB 09 - When I Saw Your Face DR8 -0.27 dB -10.31 dB 10 - Girl! (You Got to Forgive Him) DR8 -0.27 dB -10.74 dB 11 - Call on God----------------------------------------------------------------------------------------------
Number of files: 11 Official DR value: DR9
==============================================================================================

To download the file disable ad blocking, and reload the page.

disable adblock How to disable ad blocking?

Download by magnet link 216 MB Download Torrent

Login using:



   
Current time is: 23-Sep 16:11 :: All times are UTC ± 0