Jeremy Wall / Cool Running
Жанр: Smooth Jazz
Носитель: CD
Страна-производитель диска (релиза): USA
Год издания: 1991
Издатель (лейбл): Amherst Records
Номер по каталогу: AMH 94403
Страна исполнителя (группы): USA
Аудиокодек: FLAC (*.flac)
Тип рипа: image+.cue
Битрейт аудио: lossless
Продолжительность: 48:17
Источник (релизер): собственный рип
Наличие сканов в содержимом раздачи: из сети (мало)
Треклист:
1. Out of the Blue 5:19
2. Riverrun 4:29
3. Key West Strut 5:24
4. Global Village 5:24
5. The Way Home 4:54
6. Cool Running 4:43
7. Ancient Words 4:27
8. Water Rhythm 4:02
9. Their Hands Are Blue 4:11
10. Into the Sunset 5:03

Лог создания рипа

Exact Audio Copy V1.3 from 2. September 2016
Отчёт EAC об извлечении, выполненном 15. ноября 2017, 15:53
Jeremy Wall / Cool Running
Дисковод: TSSTcorpCDDVDW TS-L633C Adapter: 1 ID: 0
Режим чтения : ДостоверностьИспользование точного потока : ДаОтключение кэша аудио : ДаИспользование указателей C2 : Нет
Коррекция смещения при чтении : 6Способность читать области Lead-in и Lead-out : НетЗаполнение пропущенных сэмплов тишиной : ДаУдаление блоков с тишиной в начале и конце : НетПри вычислениях CRC использовались нулевые сэмплы : ДаИнтерфейс : Встроенный Win32-интерфейс для Win NT/2000
Выходной формат : Пользовательский кодировщикВыбранный битрейт : 768 kBit/sКачество : ВысокийДобавление ID3-тега : НетУтилита сжатия : C:\Program Files (x86)\Exact Audio Copy\FLAC\FLAC.EXEДополнительные параметры : -6 -V -T "ARTIST=%artist%" -T "TITLE=%title%" -T "ALBUM=%albumtitle%" -T "DATE=%year%" -T "TRACKNUMBER=%tracknr%" -T "GENRE=%genre%" -T "COMMENT=%comment%" -T "BAND=%albuminterpret%" -T "ALBUMARTIST=%albuminterpret%" -T "COMPOSER=%composer%" %haslyrics%--tag-from-file=LYRICS="%lyricsfile%"%haslyrics% -T "DISCNUMBER=%cdnumber%" -T "TOTALDISCS=%totalcds%" -T "TOTALTRACKS=%numtracks%" %hascover%--picture="%coverfile%"%hascover% %source% -o %dest%
TOC извлечённого CD
Трек | Старт | Длительность | Начальный сектор | Конечный сектор --------------------------------------------------------------------- 1 | 0:00.32 | 5:19.13 | 32 | 23969 2 | 5:19.45 | 4:29.22 | 23970 | 44166 3 | 9:48.67 | 5:25.43 | 44167 | 68584 4 | 15:14.35 | 5:24.67 | 68585 | 92951 5 | 20:39.27 | 4:58.73 | 92952 | 115374 6 | 25:38.25 | 4:47.70 | 115375 | 136969 7 | 30:26.20 | 4:27.55 | 136970 | 157049 8 | 34:54.00 | 4:06.25 | 157050 | 175524 9 | 39:00.25 | 4:15.02 | 175525 | 194651 10 | 43:15.27 | 5:01.58 | 194652 | 217284
Характеристики диапазона извлечения и сообщения об ошибках
Выбранный диапазон
Имя файла D:\Музыка\Музыка\Jazz\Jeremy Wall - Cool Running.wav
Пиковый уровень 100.0 % Скорость извлечения 3.6 X Качество диапазона 100.0 % CRC теста 032F1BFF CRC копии 032F1BFF Копирование... OK
Ошибок не произошло
AccurateRip: сводка
Трек 1 : извлечено точно (доверие 2) [DDD64EF6] (AR v1)Трек 2 : извлечено точно (доверие 2) [399742F9] (AR v1)Трек 3 : извлечено точно (доверие 2) [DFA715CD] (AR v1)Трек 4 : извлечено точно (доверие 2) [E2695F15] (AR v1)Трек 5 : извлечено точно (доверие 2) [6A4EB2E7] (AR v1)Трек 6 : извлечено точно (доверие 2) [82466B90] (AR v1)Трек 7 : извлечено точно (доверие 2) [FCFE8E22] (AR v1)Трек 8 : извлечено точно (доверие 2) [DAF1E7DD] (AR v1)Трек 9 : извлечено точно (доверие 2) [7C28D835] (AR v1)Трек 10 : извлечено точно (доверие 2) [0C277203] (AR v1)
Все треки извлечены точно
Конец отчёта
==== Контрольная сумма отчёта C5BB69871618A0259A4E2CB68905D04EAF21CD4DF1DB3BFD17239C03FF0CFA20 ====

Содержание индексной карты (.CUE)

REM DATE 1991REM DISCID 7E0B510AREM COMMENT "ExactAudioCopy v1.3"PERFORMER "Jeremy Wall"TITLE "Cool Running"REM COMPOSER ""FILE "Jeremy Wall - Cool Running.flac" WAVE  TRACK 01 AUDIO    TITLE "Out of the Blue"    PERFORMER "Jeremy Wall"    REM COMPOSER ""    INDEX 00 00:00:00    INDEX 01 00:00:32  TRACK 02 AUDIO    TITLE "River Run"    PERFORMER "Jeremy Wall"    REM COMPOSER ""    INDEX 01 05:19:45  TRACK 03 AUDIO    TITLE "Key West Strut"    PERFORMER "Jeremy Wall"    REM COMPOSER ""    INDEX 01 09:48:67  TRACK 04 AUDIO    TITLE "Global Village"    PERFORMER "Jeremy Wall"    REM COMPOSER ""    INDEX 01 15:14:35  TRACK 05 AUDIO    TITLE "The Way Home"    PERFORMER "Jeremy Wall"    REM COMPOSER ""    INDEX 01 20:39:27  TRACK 06 AUDIO    TITLE "Cool Running"    PERFORMER "Jeremy Wall"    REM COMPOSER ""    INDEX 00 25:35:62    INDEX 01 25:38:25  TRACK 07 AUDIO    TITLE "Ancient Worlds"    PERFORMER "Jeremy Wall"    REM COMPOSER ""    INDEX 00 30:23:67    INDEX 01 30:26:20  TRACK 08 AUDIO    TITLE "Water Rhythm"    PERFORMER "Jeremy Wall"    REM COMPOSER ""    INDEX 00 34:52:55    INDEX 01 34:54:00  TRACK 09 AUDIO    TITLE "Their Hands Are Blue"    PERFORMER "Jeremy Wall"    REM COMPOSER ""    INDEX 00 38:57:52    INDEX 01 39:00:25  TRACK 10 AUDIO    TITLE "Into the Sunset"    PERFORMER "Jeremy Wall"    REM COMPOSER ""    INDEX 00 43:11:30    INDEX 01 43:15:27

Об альбоме (сборнике)

Сольный альбом основателя и музыканта Spyro Gyra. https://www.allmusic.com/album/cool-running-mw0000264848

Состав

Jeremy Wall: Piano & Keyboards
Grant Geissman: Guitar
Vibes & Marimba: Dave Samuels
Drums: Danny Gottlieb
Chip Jackson: Acoustic Bass
Mark Egan: Electric Bass
Alex Acuna: Percussion
Lew Soloff: Trumpet
Jerry Peel: French Horn

To download the file disable ad blocking, and reload the page.

disable adblock How to disable ad blocking?

Download by magnet link 274 MB Download Torrent

Login using:

Similar topics



   
Current time is: 20-Sep 01:28 :: All times are UTC ± 0