Mistralth - My Grief
Страна: Finland
Жанр: Dark/Doom Metal
Носитель: CD
Год издания: 2017
Производитель диска: GS Productions [GSP 179]
Аудиокодек: FLAC (*.flac)
Тип рипа: image+.cue
Битрейт аудио: lossless
Продолжительность: 0:39:32
Источник: Original CD
Сканы: да
Треклист:
01. No Tomorrow (5:26)
02. Feel Nothing (4:54)
03. I Survive (5:20)
04. Existence (5:58)
05. Coming Full Circle (5:15)
06. Left Behind (5:49)
07. Chains Of Bastille (6:50)

Отчёт ЕАС

Exact Audio Copy V1.1 from 23. June 2015
EAC extraction logfile from 18. November 2017, 16:45
Mistralth / My Grief
Used drive : ASUS DRW-1612BL Adapter: 2 ID: 0
Read mode : SecureUtilize accurate stream : YesDefeat audio cache : YesMake use of C2 pointers : No
Read offset correction : 6Overread into Lead-In and Lead-Out : NoFill up missing offset samples with silence : YesDelete leading and trailing silent blocks : NoNull samples used in CRC calculations : YesUsed interface : Installed external ASPI interface
Used output format : User Defined EncoderSelected bitrate : 128 kBit/sQuality : HighAdd ID3 tag : NoCommand line compressor : C:\Program Files\EAC\Exact Audio Copy\Flac\flac.exeAdditional command line options : -V -8 -T "Date=%year%" -T "Genre=%genre%" %source%
TOC of the extracted CD
Track | Start | Length | Start sector | End sector --------------------------------------------------------- 1 | 0:00.00 | 5:25.71 | 0 | 24445 2 | 5:25.71 | 4:54.34 | 24446 | 46529 3 | 10:20.30 | 5:19.53 | 46530 | 70507 4 | 15:40.08 | 5:57.46 | 70508 | 97328 5 | 21:37.54 | 5:15.13 | 97329 | 120966 6 | 26:52.67 | 5:48.55 | 120967 | 147121 7 | 32:41.47 | 6:50.31 | 147122 | 177902
Range status and errors
Selected range
Filename C:\darkbrides\Mistralth - My Grief.wav
Peak level 99.5 % Extraction speed 4.3 X Range quality 100.0 % Test CRC E897DB9B Copy CRC E897DB9B Copy OK
No errors occurred
AccurateRip summary
Track 1 not present in databaseTrack 2 not present in databaseTrack 3 not present in databaseTrack 4 not present in databaseTrack 5 not present in databaseTrack 6 not present in databaseTrack 7 not present in database
None of the tracks are present in the AccurateRip database
End of status report
---- CUETools DB Plugin V2.1.6
[CTDB TOCID: 7AKybpGnEFbxAipVAVW77uNjMdw-] disk not present in databaseSubmit result: 7AKybpGnEFbxAipVAVW77uNjMdw- has been uploaded
==== Log checksum 23E181D6DC7636F4F7CDC4396EB4D4C093D60987BB424AAF3694BF1E39B631F0 ====
-

If you like the topic, please click share to help develop our site.

To download the file disable ad blocking, and reload the page.

disable adblock How to disable ad blocking?

Download by magnet link 281 MB Download Torrent

Login using:

Similar topics



   
Current time is: 24-Mar 10:48 :: All times are UTC + 3