Информация о фильме
✧ Название: Вне времени
✧ Оригинальное название: Out of Time
✧ Год выхода: 2003
Жанр: триллер, драма, криминал
✧ Выпущено: США
✧ Продолжительность: 01:45:24
✧ Перевод: Дублированный, профессиональный двухголосый, авторский одноголосый, профессиональный многоголосый
✧ Режиссер: Карл Франклин
✧ В ролях: Дензел Вашингтон, Ева Мендес, Санаа Лэтэн, Дин Кэйн, Джон Биллингсли, Роберт Бэйкер, Алекс Картер, Энтони Короне, Терри Лафлин, Нора Данн-✧ О фильме:
Начальник отделения полиции небольшого курортного города, Маттиас Ли Уитлок, расстроенный тем, что от него уходит жена, затевает роман с замужней женщиной Энн Мераи Хэррисон. Вскоре он узнает, что его новая подруга больна раком, а ее муж, по-видимому, хочет получить за смерть жены очень крупную страховку. Маттиас решает пойти на должностное преступление, чтобы помочь Энн пройти курс лечения в дорогой клинике за границей, а Энн, в знак благодарности за заботу о ней, делает Маттиаса доверенным лицом на получение выплаты от страховой компании. Внезапно Энн и ее муж погибают, и все улики указывают на героя Дензела Вашингтона. Ему нужно срочно доказать свою невиновность, потому что число подозреваемых сокращается, и времени остается все меньше и меньше.-
Файл
✧ Качество: BDRip 1080p
✧ Видео: MPEG-4 AVC, 1920x800 (2.40:1), 12720 kbps, 23.976 fps
✧ Аудио 1: Russian: AC2 / 5.1 / 48 kHz / 448 kbps - DUB, R5
✧ Аудио 2: Russian: AC3 / 2.0 / 48 kHz / 192 kbps - DVO, FDV
✧ Аудио 3: Russian: DTS / 5.1 / 48 kHz / 1509 kbps - AVO, А. Гаврилов
✧ Аудио 4: Russian: DTS / 5.1 / 48 kHz / 1509 kbps - AVO, М. Яроцкий
✧ Аудио 5: Ukrainian: AC3 / 2.0 / 48 kHz / 192 kbps - MVO, AMC
✧ Аудио 6: English: DTS / 5.1 / 48 kHz / 1509 kbps - Оригинал
✧ Субтитры: Русские, английские
✧ Навигация по главам: есть
Релиз от:

Скриншоты



MediaInfo

Общее
Уникальный идентификатор : 195937033824980702386351848318346673786 (0x9368199DE972D72CAEE8515CA1673E7A)
Полное имя : Out.of.Time.2003.1080p.BluRay.4xRus.Ukr.Eng.HDCLUB.mkv
Формат : Matroska
Версия формата : Version 2
Размер файла : 13,3 Гбайт
Продолжительность : 1 ч. 45 м.
Общий поток : 18,1 Мбит/сек
Название фильма : Out of Time (2003) - Release for HDCLUB
Дата кодирования : UTC 2017-03-13 13:39:39
Программа кодирования : mkvmerge v5.8.0 ('No Sleep / Pillow') built on Sep 2 2012 15:37:04
Библиотека кодирования : libebml v1.2.3 + libmatroska v1.3.0
Обложка : Yes
Attachments : cover.jpg / logfile.log
Видео
Идентификатор : 1
Формат : AVC
Формат/Информация : Advanced Video Codec
Профиль формата : High@L4.1
Параметр CABAC формата : Да
Параметр RefFrames формата : 5 кадров
Идентификатор кодека : V_MPEG4/ISO/AVC
Продолжительность : 1 ч. 45 м.
Битрейт : 12,4 Мбит/сек
Ширина : 1920 пикселей
Высота : 800 пикселей
Соотношение сторон : 2,40:1
Режим частоты кадров : Постоянный
Частота кадров : 23,976 (24000/1001) кадра/сек
Цветовое пространство : YUV
Субдискретизация насыщенности : 4:2:0
Битовая глубина : 8 бит
Тип развёртки : Прогрессивная
Бит/(Пиксели*Кадры) : 0.336
Размер потока : 9,10 Гбайт (68%)
Заголовок : Out of Time (2003) - Release for HDCLUB
Библиотека кодирования : x264 core 148 r2744kMod b97ae06
Настройки программы : cabac=1 / ref=5 / deblock=1:-3:-3 / analyse=0x3:0x133 / me=umh / subme=11 / psy=1 / fade_compensate=0.00 / psy_rd=1.05:0.00 / mixed_ref=1 / me_range=48 / chroma_me=1 / trellis=2 / 8x8dct=1 / cqm=0 / deadzone=21,11 / fast_pskip=0 / chroma_qp_offset=-2 / threads=12 / lookahead_threads=3 / sliced_threads=0 / nr=0 / decimate=0 / interlaced=0 / bluray_compat=0 / constrained_intra=0 / bframes=10 / b_pyramid=2 / b_adapt=2 / b_bias=0 / direct=3 / weightb=1 / open_gop=0 / weightp=2 / keyint=240 / keyint_min=23 / scenecut=40 / intra_refresh=0 / rc_lookahead=120 / rc=crf / mbtree=0 / crf=19.0000 / qcomp=0.60 / qpmin=0 / qpmax=69 / qpstep=4 / vbv_maxrate=62500 / vbv_bufsize=78125 / crf_max=0.0 / nal_hrd=none / filler=0 / ip_ratio=1.30 / pb_ratio=1.20 / aq=3:0.80
Язык : English
Default : Да
Forced : Нет
Цветовой диапазон : Limited
Основные цвета : BT.709
Характеристики трансфера : BT.709
Коэффициенты матрицы : BT.709
Аудио #1
Идентификатор : 2
Формат : AC-3
Формат/Информация : Audio Coding 3
Параметр Endianness формата : Big
Идентификатор кодека : A_AC3
Продолжительность : 1 ч. 45 м.
Вид битрейта : Постоянный
Битрейт : 448 Кбит/сек
Каналы : 6 каналов
Расположение каналов : Front: L C R, Side: L R, LFE
Частота : 48,0 КГц
Частота кадров : 31,250 кадров/сек (1536 SPF)
Битовая глубина : 16 бит
Метод сжатия : С потерями
Размер потока : 338 Мбайт (2%)
Заголовок : Дубляж, R5
Язык : Russian
Default : Да
Forced : Нет
Аудио #2
Идентификатор : 3
Формат : AC-3
Формат/Информация : Audio Coding 3
Параметр Endianness формата : Big
Идентификатор кодека : A_AC3
Продолжительность : 1 ч. 45 м.
Вид битрейта : Постоянный
Битрейт : 192 Кбит/сек
Каналы : 2 канала
Расположение каналов : Front: L R
Частота : 48,0 КГц
Частота кадров : 31,250 кадров/сек (1536 SPF)
Битовая глубина : 16 бит
Метод сжатия : С потерями
Размер потока : 145 Мбайт (1%)
Заголовок : Двухголосый закадровый, FDV
Язык : Russian
Default : Нет
Forced : Нет
Аудио #3
Идентификатор : 4
Формат : DTS
Формат/Информация : Digital Theater Systems
Режим : 16
Параметр Endianness формата : Big
Идентификатор кодека : A_DTS
Продолжительность : 1 ч. 45 м.
Вид битрейта : Постоянный
Битрейт : 1509 Кбит/сек
Каналы : 6 каналов
Расположение каналов : Front: L C R, Side: L R, LFE
Частота : 48,0 КГц
Частота кадров : 93,750 кадра/сек (512 SPF)
Битовая глубина : 16 бит
Метод сжатия : С потерями
Размер потока : 1,11 Гбайт (8%)
Заголовок : Одноголосый закадровый А.Гаврилов
Язык : Russian
Default : Нет
Forced : Нет
Аудио #4
Идентификатор : 5
Формат : DTS
Формат/Информация : Digital Theater Systems
Режим : 16
Параметр Endianness формата : Big
Идентификатор кодека : A_DTS
Продолжительность : 1 ч. 45 м.
Вид битрейта : Постоянный
Битрейт : 1509 Кбит/сек
Каналы : 6 каналов
Расположение каналов : Front: L C R, Side: L R, LFE
Частота : 48,0 КГц
Частота кадров : 93,750 кадра/сек (512 SPF)
Битовая глубина : 16 бит
Метод сжатия : С потерями
Размер потока : 1,11 Гбайт (8%)
Заголовок : Одноголосый закадровый М.Яроцкий
Язык : Russian
Default : Нет
Forced : Нет
Аудио #5
Идентификатор : 6
Формат : AC-3
Формат/Информация : Audio Coding 3
Параметр Endianness формата : Big
Идентификатор кодека : A_AC3
Продолжительность : 1 ч. 45 м.
Вид битрейта : Постоянный
Битрейт : 192 Кбит/сек
Каналы : 2 канала
Расположение каналов : Front: L R
Частота : 48,0 КГц
Частота кадров : 31,250 кадров/сек (1536 SPF)
Битовая глубина : 16 бит
Метод сжатия : С потерями
Размер потока : 145 Мбайт (1%)
Заголовок : Многоголосый закадровый, AMC
Язык : Ukrainian
Default : Нет
Forced : Нет
Аудио #6
Идентификатор : 7
Формат : DTS
Формат/Информация : Digital Theater Systems
Режим : 16
Параметр Endianness формата : Big
Идентификатор кодека : A_DTS
Продолжительность : 1 ч. 45 м.
Вид битрейта : Постоянный
Битрейт : 1509 Кбит/сек
Каналы : 6 каналов
Расположение каналов : Front: L C R, Side: L R, LFE
Частота : 48,0 КГц
Частота кадров : 93,750 кадра/сек (512 SPF)
Битовая глубина : 16 бит
Метод сжатия : С потерями
Размер потока : 1,11 Гбайт (8%)
Заголовок : English
Язык : English
Default : Нет
Forced : Нет
Текст #1
Идентификатор : 8
Формат : UTF-8
Идентификатор кодека : S_TEXT/UTF8
Идентификатор кодека/Информация : UTF-8 Plain Text
Заголовок : Russian
Язык : Russian
Default : Нет
Forced : Нет
Текст #2
Идентификатор : 9
Формат : UTF-8
Идентификатор кодека : S_TEXT/UTF8
Идентификатор кодека/Информация : UTF-8 Plain Text
Заголовок : English (SDH)
Язык : English
Default : Нет
Forced : Нет
Меню
00:00:00.000 : en:Main Title
00:07:33.743 : en:An Ugly Burglar
00:11:51.961 : en:"I Don't Want To"
00:14:42.089 : en:Not Worth the Fight
00:17:59.202 : en:Half a Foursome
00:22:24.300 : en:A Terminal Setback
00:26:02.101 : en:Extra Insurance
00:29:42.614 : en:The Living Gift
00:34:37.157 : en:Only Two Days to Switch
00:39:02.380 : en:Hypothetical Threats
00:43:40.742 : en:Ann's Farewell Present...
00:47:16.416 : en:...And Matt's
00:51:52.067 : en:Past Eleven
00:59:48.458 : en:Definitely Arson
01:04:07.175 : en:What the Dentist Knows
01:13:47.213 : en:Clean Bill of Health
01:17:45.452 : en:Somewhat Positive ID
01:20:48.301 : en:Messing Up the Evidence
01:26:12.957 : en:Whose Phone Is It?
01:31:08.712 : en:Motive and Opportunity
01:36:17.854 : en:On Cabot's Trail
01:42:44.992 : en:"I Meant Five Seconds"

To download the file disable ad blocking, and reload the page.

disable adblock How to disable ad blocking?

Download by magnet link 13.32 GB Download Torrent

Login using:

Similar topics

Вне времени / Out Of Time (2003) BDRip 1080p
 5.77 GB   5 | 0   30-May-17 15:00   1
Вне времени / Out of Time (2003) BDRip
 746 MB   4 | 0   18-Jan-17 16:17   0


   
Current time is: 15-Nov 21:38 :: All times are UTC + 3