-Нерв / Nerve-«Играй, чтобы выжить»- -Страна: США
Жанр: триллер, криминал, детектив, приключения
Год выпуска: 2016
Продолжительность: 01:36:18-Перевод 1: Профессиональный (дублированный) iTunes
Перевод 2: Авторский (одноголосый закадровый) Немахов
Субтитры: русские, английские
Оригинальная аудиодорожка: английская-Режиссер: Генри Джуст / Henry Joost, Эриель Шульман / Ariel Schulman-В ролях: Эмма Робертс, Дэйв Франко, Эмили Мид, Майлс Хейзер, Джульетт Льюис, Кимико Гленн, Марк Джон Джеффрис, Машин Ган Келли, Брайан «Сене» Марк, Эд Сквайр, Райтор Дойл, Джош Островский-Описание: Поддавшись на уговоры одноклассниц, тихоня Ви открывает для себя мир популярной онлайн-игры «Нерв», где участники выполняют задания разной степени сложности, которые придумывают для них другие пользователи. В случае успеха игроки получают очень неплохие деньги. Ви проявляет неожиданную для самой себя смелость и отсутствие комплексов, и в очередном раунде знакомится с парнем по имени Иэн. Красивая пара нравится зрителям игры, и они решают, что следующие задания Ви и Иэн должны выполнять только вместе. Ставки растут, задания становятся все опаснее, и Ви постепенно понимает, что выйти из игры по собственной воле не получится. Те, кто считают себя игроками, на самом деле всего лишь пешки в руках таинственного сообщества Наблюдателей. И никто из участников игры не знает, какое задание станет следующим - или последним.- - -Качество видео: BDRip / Nerve.2016.REMUX.BluRay.1080p.AVC.DTS-HD.MA7.1-iFT
Формат видео: AVI-Видео: XviD build 67, 720x304 (2.35:1), 23.976 fps, ~1950 kbps avg, 0.372 bit/pixel
Аудио 1: 48 kHz, AC3 Dolby Digital, 3/2 (L,C,R,l,r) + LFE ch, ~384 kbps avg iTunes
Аудио 2: 48 kHz, AC3 Dolby Digital, 3/2 (L,C,R,l,r) + LFE ch, ~448 kbps avg Немахов
Аудио 3: 48 kHz, AC3 Dolby Digital, 3/2 (L,C,R,l,r) + LFE ch, ~448 kbps avg Оригинал-

MediaInfo

Complete name               : D:\Раздачи\Нерв (2016) BDRip_ivanes20031987\Нерв (2016) BDRip_ivanes20031987.aviFormat                      : AVIFormat/Info                 : Audio Video InterleaveFormat profile              : OpenDMLFile size                   : 2.19 GiBDuration                    : 1 h 36 minOverall bit rate            : 3 253 kb/sWriting application         : VirtualDubMod 1.5.10.3 (build 2550/release)Writing library             : VirtualDubMod build 2550/release
VideoID : 0Format : MPEG-4 VisualFormat profile : Advanced Simple@L5Format settings, BVOP : 1Format settings, QPel : NoFormat settings, GMC : No warppointsFormat settings, Matrix : CustomCodec ID : XVIDCodec ID/Hint : XviDDuration : 1 h 36 minBit rate : 1 950 kb/sWidth : 720 pixelsHeight : 304 pixelsDisplay aspect ratio : 2.35:1Frame rate : 23.976 (24000/1001) FPSColor space : YUVChroma subsampling : 4:2:0Bit depth : 8 bitsScan type : ProgressiveCompression mode : LossyBits/(Pixel*Frame) : 0.372Stream size : 1.31 GiB (60%)Writing library : XviD 67
Audio #1ID : 1Format : AC-3Format/Info : Audio Coding 3Format settings, Endianness : BigCodec ID : 2000Duration : 1 h 36 minBit rate mode : ConstantBit rate : 384 kb/sChannel(s) : 6 channelsChannel positions : Front: L C R, Side: L R, LFESampling rate : 48.0 kHzFrame rate : 31.250 FPS (1536 SPF)Bit depth : 16 bitsCompression mode : LossyStream size : 264 MiB (12%)Alignment : Split accross interleavesInterleave, duration : 42 ms (1.00 video frame)Interleave, preload duratio : 500 msService kind : Complete Main
Audio #2ID : 2Format : AC-3Format/Info : Audio Coding 3Format settings, Endianness : BigCodec ID : 2000Duration : 1 h 36 minBit rate mode : ConstantBit rate : 448 kb/sChannel(s) : 6 channelsChannel positions : Front: L C R, Side: L R, LFESampling rate : 48.0 kHzFrame rate : 31.250 FPS (1536 SPF)Bit depth : 16 bitsCompression mode : LossyStream size : 309 MiB (14%)Alignment : Split accross interleavesInterleave, duration : 42 ms (1.00 video frame)Interleave, preload duratio : 500 msService kind : Complete Main
Audio #3ID : 3Format : AC-3Format/Info : Audio Coding 3Format settings, Endianness : BigCodec ID : 2000Duration : 1 h 36 minBit rate mode : ConstantBit rate : 448 kb/sChannel(s) : 6 channelsChannel positions : Front: L C R, Side: L R, LFESampling rate : 48.0 kHzFrame rate : 31.250 FPS (1536 SPF)Bit depth : 16 bitsCompression mode : LossyStream size : 309 MiB (14%)Alignment : Split accross interleavesInterleave, duration : 42 ms (1.00 video frame)Interleave, preload duratio : 500 msService kind : Complete Main

Скриншоты


To download the file disable ad blocking, and reload the page.

disable adblock How to disable ad blocking?

Download by magnet link 2.19 GB Download Torrent

Login using:

Similar topics



   
Current time is: 23-Sep 16:58 :: All times are UTC ± 0