Восстание / Revolt
Год выхода: 2017
Выпущено: Великобритания, ЮАР
Жанр: фантастика, боевик
Продолжительность: 01:27:16-Перевод: Любительский (многоголосый закадровый) | Синема УС
Субтитры: Русские (форсированные на иностранную речь)
Оригинальная аудиодорожка: нет-Режиссер:
Джо Миэйл / Joe Miale-В ролях:
Ли Пейс, Беренис Марло, Джейсон Флеминг, Эми Луиз Уилсон, Алан Сантини, Том Фэйрфут, Кеннет Фок, Эдвин Джей, Карл Роддам-О фильме:
Американский спецназовец был в Африке, когда Землю атаковали высокотехнологичные пришельцы. Столкнувшись с захватчиками, наш герой потерял сознание, а когда очнулся запертым в заброшенном полицейском участке, то понял, что лишился ещё и памяти. В соседней камере обнаружилась врач местной больницы Надя, а огромные наэлектризованные инопланетные роботы-убийцы — не самое страшное, с чем придётся столкнуться двум белым людям в Африке.-Качество: HDRip | Revolt.2017.BDRip.1080p.Rus.Eng
Формат: AVI
Видео: 688x288 (2.39:1), 23.976 fps, XviD build 73 ~1051 kbps avg, 0.22 bit/pixel
Аудио: 48 kHz, MPEG Layer 3, 2 ch, ~128.00 kbps avg-Скачать сэмпл-

MediaInfo

Format                      : AVI
Format/Info                 : Audio Video Interleave
File size                   : 742 MiB
Duration                    : 1 h 27 min
Overall bit rate            : 1 189 kb/s
Writing application         : VirtualDubMod 1.5.10.3 | www.virtualdub-fr.org || (build 2550/release)
Writing library             : VirtualDubMod build 2550/release
Video
ID                          : 0
Format                      : MPEG-4 Visual
Format profile              : Advanced Simple@L5
Format settings             : BVOP1 / Custom Matrix
Format settings, BVOP       : 1
Format settings, QPel       : No
Format settings, GMC        : No warppoints
Format settings, Matrix     : Custom
Codec ID                    : XVID
Codec ID/Hint               : XviD
Duration                    : 1 h 27 min
Bit rate                    : 1 052 kb/s
Width                       : 688 pixels
Height                      : 288 pixels
Display aspect ratio        : 2.40:1
Frame rate                  : 23.976 (24000/1001) FPS
Color space                 : YUV
Chroma subsampling          : 4:2:0
Bit depth                   : 8 bits
Scan type                   : Progressive
Compression mode            : Lossy
Bits/(Pixel*Frame)          : 0.221
Stream size                 : 656 MiB (88%)
Writing library             : XviD 73
Audio
ID                          : 1
Format                      : MPEG Audio
Format version              : Version 1
Format profile              : Layer 3
Codec ID                    : 55
Codec ID/Hint               : MP3
Duration                    : 1 h 27 min
Bit rate mode               : Constant
Bit rate                    : 128 kb/s
Channel(s)                  : 2 channels
Sampling rate               : 48.0 kHz
Compression mode            : Lossy
Stream size                 : 79.9 MiB (11%)
Alignment                   : Aligned on interleaves
Interleave, duration        : 42  ms (1.00 video frame)
Interleave, preload duratio : 504  ms
Writing library             : LAME3.99r
Encoding settings           : -m s -V 4 -q 2 -lowpass 17 -b 128

Скриншоты

При появлении проф. озвучки, рип будет перезалит!

To download the file disable ad blocking, and reload the page.

disable adblock How to disable ad blocking?

Download by magnet link 742 MB Download Torrent

Login using:

Similar topics



   
Current time is: 15-Nov 22:23 :: All times are UTC + 3