Его собачье дело / Once Upon a Time in Venice
Страна: США
Жанр: боевик, триллер, комедия
Год выпуска: 2017
Продолжительность: 01:33:59
Перевод: Профессиональный (дублированный)
Субтитры: нет
Оригинальная аудиодорожка: нет-Режиссер: Марк Каллен, Робб Каллен / Mark Cullen, Robb Cullen-В ролях: Элизабет Рём, Джейсон Момоа, Брюс Уиллис, Фамке Янссен, Ана Флавия Гавлак, Джон Гудмен, Томас Миддлдитч, Адам Голдберг, Кэл Пенн, Стефани Сигман-Описание: Действие фильма будет происходить в Лос-Анджелесе. Профессиональная и личная жизнь главного героя пошла под откос, когда его пса Бадди похищает группа бандитов. Чтобы вернуть любимого питомца, частный детектив соглашается выполнять поручения преступников. Но пока он занят возвращением четвероногого друга, по его следам идут враги, среди которых двое суровых парней из Самоа, подручные ростовщика, которому герой задолжал деньги.-Качество видео: BDRip
Формат видео: AVI
Видео: 720x400 (1.80:1), 24.000 fps, XviD build 73 ~1768 kbps avg, 0.26 bit/pixel
Аудио: 48 kHz, AC3 Dolby Digital, 3/2 (L,C,R,l,r) + LFE ch, ~448 kbps-Скачать сэмпл-

WEB-DLRip vs Open Mate



MediaInfo

Format                      : AVI
Format/Info                 : Audio Video Interleave
File size                   : 1.46 GiB
Duration                    : 1 h 33 min
Overall bit rate            : 2 226 kb/s
Writing application         : VirtualDubMod 1.5.10.3 | www.virtualdub-fr.org || (build 2550/release)
Writing library             : VirtualDubMod build 2550/release
Video
ID                          : 0
Format                      : MPEG-4 Visual
Format profile              : Advanced Simple@L5
Format settings             : BVOP1 / Custom Matrix
Format settings, BVOP       : 1
Format settings, QPel       : No
Format settings, GMC        : No warppoints
Format settings, Matrix     : Custom
Codec ID                    : XVID
Codec ID/Hint               : XviD
Duration                    : 1 h 33 min
Bit rate                    : 1 769 kb/s
Width                       : 720 pixels
Height                      : 400 pixels
Display aspect ratio        : 16:9
Frame rate                  : 24.000 FPS
Color space                 : YUV
Chroma subsampling          : 4:2:0
Bit depth                   : 8 bits
Scan type                   : Progressive
Compression mode            : Lossy
Bits/(Pixel*Frame)          : 0.256
Stream size                 : 1.16 GiB (79%)
Writing library             : XviD 73
Audio
ID                          : 1
Format                      : AC-3
Format/Info                 : Audio Coding 3
Format settings, Endianness : Big
Codec ID                    : 2000
Duration                    : 1 h 33 min
Bit rate mode               : Constant
Bit rate                    : 448 kb/s
Channel(s)                  : 6 channels
Channel positions           : Front: L C R, Side: L R, LFE
Sampling rate               : 48.0 kHz
Frame rate                  : 31.250 FPS (1536 SPF)
Bit depth                   : 16 bits
Compression mode            : Lossy
Stream size                 : 301 MiB (20%)
Alignment                   : Split accross interleaves
Interleave, duration        : 42  ms (1.00 video frame)
Interleave, preload duratio : 500  ms
Service kind                : Complete Main

Скриншоты

To download the file disable ad blocking, and reload the page.

disable adblock How to disable ad blocking?

Download by magnet link 1.46 GB Download Torrent

Login using:

Similar topics



   
Current time is: 15-Nov 23:38 :: All times are UTC + 3