Обет молчания / Acts of Vengeance
Страна: Болгария, США
Жанр: боевик, драма
Год выпуска: 2017
Продолжительность: 01:27:20-Перевод: Любительский (двухголосый закадровый) | RecentFilms
Субтитры: нет
Оригинальная аудиодорожка: нет-Режиссер: Айзек Флорентайн / Isaac Florentine-В ролях: Антонио Бандерас, Пас Вега, Карл Урбан, Кристина Серафини, Атанас Сребрев, Эрик Али, Лиллиэн Бланкеншип, Оуэн Дэвис, Клинт Дайер, Кит Д. Эванс,...-Описание: Успешный адвокат и счастливый семьянин Фрэнк в один миг теряет жену и дочь. Произошло жестокое убийство, но расследование не продвинулось ни на шаг. Теперь у юриста в жизни одна цель: найти настоящих убийц. Он начинает собственное расследование. Взяв правосудие в свои руки, он клянется, что не произнесет ни слова до тех пор, пока не отомстит за семью.-Качество видео: HDRip | Acts.Of.Vengeance.2017.BDRip.1080p
Формат видео: AVI
Видео: 704x384 (1.83:1), 23.976 fps, XviD build 73 ~2183 kbps avg, 0.34 bit/pixel
Аудио: 48 kHz, AC3 Dolby Digital, 2/0 (L,R) ch, ~192 kbps-Скачать сэмпл-

MediaInfo


Format                      : AVI
Format/Info                 : Audio Video Interleave
File size                   : 1.45 GiB
Duration                    : 1 h 27 min
Overall bit rate            : 2 385 kb/s
Writing application         : VirtualDubMod 1.5.10.3 | www.virtualdub-fr.org || (build 2550/release)
Writing library             : VirtualDubMod build 2550/release
Video
ID                          : 0
Format                      : MPEG-4 Visual
Format profile              : Advanced Simple@L5
Format settings             : BVOP1 / Custom Matrix
Format settings, BVOP       : 1
Format settings, QPel       : No
Format settings, GMC        : No warppoints
Format settings, Matrix     : Custom
Codec ID                    : XVID
Codec ID/Hint               : XviD
Duration                    : 1 h 27 min
Bit rate                    : 2 183 kb/s
Width                       : 704 pixels
Height                      : 384 pixels
Display aspect ratio        : 1.85:1
Frame rate                  : 23.976 (24000/1001) FPS
Color space                 : YUV
Chroma subsampling          : 4:2:0
Bit depth                   : 8 bits
Scan type                   : Progressive
Compression mode            : Lossy
Bits/(Pixel*Frame)          : 0.337
Stream size                 : 1.33 GiB (92%)
Writing library             : XviD 73
Audio
ID                          : 1
Format                      : AC-3
Format/Info                 : Audio Coding 3
Format settings, Endianness : Big
Codec ID                    : 2000
Duration                    : 1 h 27 min
Bit rate mode               : Constant
Bit rate                    : 192 kb/s
Channel(s)                  : 2 channels
Channel positions           : Front: L R
Sampling rate               : 48.0 kHz
Frame rate                  : 31.250 FPS (1536 SPF)
Bit depth                   : 16 bits
Compression mode            : Lossy
Stream size                 : 120 MiB (8%)
Alignment                   : Split accross interleaves
Interleave, duration        : 42  ms (1.00 video frame)
Interleave, preload duratio : 500  ms
Service kind                : Complete Main

Скриншоты

При появлении проф. озвучки, рип будет перезалит!

To download the file disable ad blocking, and reload the page.

disable adblock How to disable ad blocking?

Download by magnet link 1.45 GB Download Torrent

Login using:

Similar topics

Обет молчания / Acts of Vengeance (2017) BDRip 1080p | L2
 8.62 GB   2 | 0   18-Nov-17 07:30   0


   
Current time is: 20-Sep 00:21 :: All times are UTC ± 0