-Вудшок / Woodshock-- -Страна: США
Жанр: триллер, драма
Год выпуска: 2017
Продолжительность: 01:41:00-Перевод: Одноголосый закадровый BadBajo
Субтитры: нет
Оригинальная аудиодорожка: нет-Режиссер: Кейт Малливи / Kate Mulleavy, Лаура Малливи / Laura Mulleavy-В ролях: Кирстен Данст, Джо Коул, Йохан Филип Асбек, Стеф ДюВалл, Джек Килмер, Сьюзен Трейлор, Джоэль Мак Кой, Майкл Павличек, Джозеф Врэй Бэрни, Генри Покорски-Описание: Тереза работает в магазине Кейта по продаже лечебной марихуаны. Однажды, ей пришлось дать своей матери более сильный наркотик, чтобы безболезненно отправить её в мир иной. Постепенно Тереза и сама пристрастилась к этому наркотику и он стал вызывать у неё галлюцинации и паранойю.- - -Качество видео: HDRip-AVC / Woodshock.2017.LIMITED.720p.BluRay.x264_rus_BadBajo
Формат видео: MKV-Видео: MPEG-4 AVC, 1046x438 (2.40:1), 23.976 fps, ~1614 kbps avg, 0.147 bit/pixel
Аудио: 48 kHz, AC3 Dolby Digital, 3/2 (L,C,R,l,r) + LFE ch, ~448 kbps avg-

MediaInfo

Complete name               : D:\Раздачи\Вудшок (2017) HDRip-AVC_ivanrs20031987.mkvFormat                      : MatroskaFormat version              : Version 2File size                   : 1.46 GiBDuration                    : 1 h 41 minOverall bit rate            : 2 064 kb/sEncoded date                : UTC 2017-11-16 19:57:24Writing application         : mkvmerge v4.4.0 ('Die Wiederkehr') сборка от Jan  3 2011 21:40:45Writing library             : libebml v1.0.0 + libmatroska v1.0.0
VideoID : 1Format : AVCFormat/Info : Advanced Video CodecFormat profile : High@L4.1Format settings, CABAC : YesFormat settings, RefFrames : 14 framesCodec ID : V_MPEG4/ISO/AVCDuration : 1 h 41 minBit rate : 1 614 kb/sWidth : 1 046 pixelsHeight : 438 pixelsDisplay aspect ratio : 2.40:1Frame rate mode : ConstantFrame rate : 23.976 (24000/1001) FPSColor space : YUVChroma subsampling : 4:2:0Bit depth : 8 bitsScan type : ProgressiveBits/(Pixel*Frame) : 0.147Stream size : 1.11 GiB (76%)Writing library : x264 core 152 r2851kMod ba24899Encoding settings : cabac=1 / ref=14 / deblock=1:-2:-1 / analyse=0x3:0x113 / me=umh / subme=10 / psy=1 / fade_compensate=0.00 / psy_rd=1.00:0.00 / mixed_ref=1 / me_range=32 / chroma_me=1 / trellis=2 / 8x8dct=1 / cqm=0 / deadzone=21,11 / fast_pskip=0 / chroma_qp_offset=-2 / threads=14 / lookahead_threads=3 / sliced_threads=0 / nr=0 / decimate=0 / interlaced=0 / bluray_compat=0 / constrained_intra=0 / bframes=14 / b_pyramid=2 / b_adapt=2 / b_bias=0 / direct=1 / weightb=1 / open_gop=0 / weightp=2 / keyint=240 / keyint_min=23 / scenecut=40 / intra_refresh=0 / rc_lookahead=60 / rc=2pass / mbtree=0 / bitrate=1614 / ratetol=1.0 / qcomp=0.60 / qpmin=0 / qpmax=69 / qpstep=4 / cplxblur=20.0 / qblur=0.5 / vbv_maxrate=50000 / vbv_bufsize=62500 / nal_hrd=none / filler=0 / ip_ratio=1.40 / pb_ratio=1.30 / aq=1:1.00Default : YesForced : No
AudioID : 2Format : AC-3Format/Info : Audio Coding 3Format settings, Endianness : BigCodec ID : A_AC3Duration : 1 h 41 minBit rate mode : ConstantBit rate : 448 kb/sChannel(s) : 6 channelsChannel positions : Front: L C R, Side: L R, LFESampling rate : 48.0 kHzFrame rate : 31.250 FPS (1536 SPF)Bit depth : 16 bitsCompression mode : LossyStream size : 324 MiB (22%)Title : BadBajoLanguage : RussianService kind : Complete MainDefault : YesForced : No

Скриншоты

To download the file disable ad blocking, and reload the page.

disable adblock How to disable ad blocking?

Download by magnet link 1.46 GB Download Torrent

Login using:

Similar topics

Вудшок / Woodshock (2017) BDRip 720p | L1
 5.75 GB   1 | 0   18-Jan-18 21:30   0


   
Current time is: 20-Sep 01:07 :: All times are UTC ± 0