Вудшок / Woodshock
Страна: США
Жанр: триллер, драма
Год выпуска: 2017
Продолжительность: 01:41:00-Перевод: Одноголосый закадровый | BadBajo
Субтитры: нет
Оригинальная аудиодорожка: нет-Режиссер: Кейт Малливи / Kate Mulleavy, Лаура Малливи / Laura Mulleavy-В ролях: Кирстен Данст, Джо Коул, Йохан Филип Асбек, Стеф ДюВалл, Джек Килмер, Сьюзен Трейлор, Джоэль Мак Кой, Майкл Павличек, Джозеф Врэй Бэрни, Генри Покорски-Описание: Тереза работает в магазине Кейта по продаже лечебной марихуаны. Однажды, ей пришлось дать своей матери более сильный наркотик, чтобы безболезненно отправить её в мир иной. Постепенно Тереза и сама пристрастилась к этому наркотику и он стал вызывать у неё галлюцинации и паранойю.-Качество видео: HDRip | Woodshock.2017.LIMITED.720p.BluRay.x264_rus_BadBajo
Формат видео: AVI
Видео: 720x304 (2.37:1), 23.976 fps, XviD build 73 ~1671 kbps avg, 0.32 bit/pixel
Аудио: 48 kHz, AC3 Dolby Digital, 3/2 (L,C,R,l,r) + LFE ch, ~384 kbps-Скачать сэмпл-

MediaInfo


Format                      : AVI
Format/Info                 : Audio Video Interleave
File size                   : 1.46 GiB
Duration                    : 1 h 41 min
Overall bit rate            : 2 065 kb/s
Writing application         : VirtualDubMod 1.5.10.3 | www.virtualdub-fr.org || (build 2550/release)
Writing library             : VirtualDubMod build 2550/release
Video
ID                          : 0
Format                      : MPEG-4 Visual
Format profile              : Advanced Simple@L5
Format settings             : BVOP1 / Custom Matrix
Format settings, BVOP       : 1
Format settings, QPel       : No
Format settings, GMC        : No warppoints
Format settings, Matrix     : Custom
Codec ID                    : XVID
Codec ID/Hint               : XviD
Duration                    : 1 h 41 min
Bit rate                    : 1 672 kb/s
Width                       : 720 pixels
Height                      : 304 pixels
Display aspect ratio        : 2.35:1
Frame rate                  : 23.976 (24000/1001) FPS
Color space                 : YUV
Chroma subsampling          : 4:2:0
Bit depth                   : 8 bits
Scan type                   : Progressive
Compression mode            : Lossy
Bits/(Pixel*Frame)          : 0.319
Stream size                 : 1.18 GiB (81%)
Writing library             : XviD 73
Audio
ID                          : 1
Format                      : AC-3
Format/Info                 : Audio Coding 3
Format settings, Endianness : Big
Codec ID                    : 2000
Duration                    : 1 h 41 min
Bit rate mode               : Constant
Bit rate                    : 384 kb/s
Channel(s)                  : 6 channels
Channel positions           : Front: L C R, Side: L R, LFE
Sampling rate               : 48.0 kHz
Frame rate                  : 31.250 FPS (1536 SPF)
Bit depth                   : 16 bits
Compression mode            : Lossy
Stream size                 : 277 MiB (19%)
Alignment                   : Split accross interleaves
Interleave, duration        : 42  ms (1.00 video frame)
Interleave, preload duratio : 500  ms
Service kind                : Complete Main

Скриншоты

При появлении проф. перевода, рип будет перезалит!

To download the file disable ad blocking, and reload the page.

disable adblock How to disable ad blocking?

Download by magnet link 1.46 GB Download Torrent

Login using:

Similar topics

Вудшок / Woodshock (2017) BDRip 720p | L1
 5.75 GB   1 | 0   18-Jan-18 21:30   0


   
Current time is: 18-Sep 17:08 :: All times are UTC ± 0