Procol Harum / A Salty Dog
Жанр: Blues Rock, Prog Rock
Носитель: CD
Страна-производитель диска (релиза): Japan
Год издания: 1969/1988
Издатель (лейбл): Cube Records/Teichiku Records
Номер по каталогу: 25CP-12
Страна исполнителя (группы): UK
Аудиокодек: WavPack (*.wv)
Тип рипа: image+.cue
Битрейт аудио: lossless
Продолжительность: 00:40:32
Источник (релизер): pqsyerg
Наличие сканов в содержимом раздачи: нет
Треклист:
1 A Salty Dog
2 The Milk Of Human Kindness
3 Too Much Between Us
4 The Devil Came From Kansas
5 Boredom
6 Juicy John Pink
7 All This And More
8 The Wreck Of The Hesperus
9 Crucifiction Lane
10 Pilgrims Progress

Лог создания рипа

Exact Audio Copy V1.0 beta 3 from 29. August 2011
EAC extraction logfile from 5. January 2017, 16:47
Procol Harum / A Salty Dog (Original CD Edition)
Used drive : MATSHITADVD-RAM UJ8B1AS Adapter: 0 ID: 1
Read mode : SecureUtilize accurate stream : YesDefeat audio cache : YesMake use of C2 pointers : No
Read offset correction : 6Overread into Lead-In and Lead-Out : NoFill up missing offset samples with silence : YesDelete leading and trailing silent blocks : NoNull samples used in CRC calculations : YesUsed interface : Native Win32 interface for Win NT & 2000
Used output format : User Defined EncoderSelected bitrate : 896 kBit/sQuality : HighAdd ID3 tag : YesCommand line compressor : D:\DISTRIBUTIVE\WavPack\wavpack-4.80.0-x64\wavpack.exeAdditional command line options : -hm -w "Year=%year%" -w "Genre=%genre%" %source% %dest%
TOC of the extracted CD
Track | Start | Length | Start sector | End sector --------------------------------------------------------- 1 | 0:00.00 | 4:41.47 | 0 | 21121 2 | 4:41.47 | 3:46.15 | 21122 | 38086 3 | 8:27.62 | 3:42.68 | 38087 | 54804 4 | 12:10.55 | 4:36.07 | 54805 | 75511 5 | 16:46.62 | 4:30.20 | 75512 | 95781 6 | 21:17.07 | 2:05.68 | 95782 | 105224 7 | 23:23.00 | 3:47.00 | 105225 | 122249 8 | 27:10.00 | 3:51.17 | 122250 | 139591 9 | 31:01.17 | 5:01.23 | 139592 | 162189 10 | 36:02.40 | 4:29.60 | 162190 | 182424
Range status and errors
Selected range
Filename D:\MUSIC\1969 Procol Harum - A Salty Dog [1988,Teichiku Records - 25CP-12,Japan,CD]\1969 Procol Harum - A Salty Dog [1988,Teichiku Records - 25CP-12,Japan,CD].wav
Peak level 95.9 % Extraction speed 3.8 X Range quality 99.9 % Test CRC 5A9558E9 Copy CRC 5A9558E9 Copy OK
No errors occurred
AccurateRip summary
Track 1 accurately ripped (confidence 3) [D5A9280A] (AR v2)Track 2 accurately ripped (confidence 3) [A6A3D151] (AR v2)Track 3 accurately ripped (confidence 3) [DE3928EE] (AR v2)Track 4 accurately ripped (confidence 3) [05E9B3A6] (AR v2)Track 5 accurately ripped (confidence 3) [8530098B] (AR v2)Track 6 accurately ripped (confidence 3) [61D35D90] (AR v2)Track 7 accurately ripped (confidence 3) [913F9F20] (AR v2)Track 8 accurately ripped (confidence 3) [50617A69] (AR v2)Track 9 accurately ripped (confidence 3) [C0D3C53A] (AR v2)Track 10 accurately ripped (confidence 3) [72EDF17D] (AR v2)
All tracks accurately ripped
End of status report
==== Log checksum 4AB6F3904D9AA112C77B8DE346C46776A7F92A1547889967BD67A8A74F0FF357 ====

Содержание индексной карты (.CUE)

REM GENRE RockREM DATE 1969REM DISCID 7A09800AREM COMMENT "ExactAudioCopy v1.0b3"PERFORMER "Procol Harum"TITLE "A Salty Dog (Original CD Edition)"FILE "1969 Procol Harum - A Salty Dog [1988,Teichiku Records - 25CP-12,Japan,CD].wv" WAVE  TRACK 01 AUDIO    TITLE "A Salty Dog"    PERFORMER "Procol Harum"    INDEX 01 00:00:00  TRACK 02 AUDIO    TITLE "The Milk Of Human Kindness"    PERFORMER "Procol Harum"    INDEX 00 04:38:25    INDEX 01 04:41:47  TRACK 03 AUDIO    TITLE "Too Much Between Us"    PERFORMER "Procol Harum"    INDEX 00 08:24:37    INDEX 01 08:27:62  TRACK 04 AUDIO    TITLE "The Devil Came From Kansas"    PERFORMER "Procol Harum"    INDEX 00 12:09:05    INDEX 01 12:10:55  TRACK 05 AUDIO    TITLE "Boredom"    PERFORMER "Procol Harum"    INDEX 00 16:45:32    INDEX 01 16:46:62  TRACK 06 AUDIO    TITLE "Juicy John Pink"    PERFORMER "Procol Harum"    INDEX 00 21:15:25    INDEX 01 21:17:07  TRACK 07 AUDIO    TITLE "Wreck Of The Hesperus"    PERFORMER "Procol Harum"    INDEX 00 23:21:50    INDEX 01 23:23:00  TRACK 08 AUDIO    TITLE "All This And More"    PERFORMER "Procol Harum"    INDEX 00 27:07:55    INDEX 01 27:10:00  TRACK 09 AUDIO    TITLE "Crucifiction Land"    PERFORMER "Procol Harum"    INDEX 00 30:57:62    INDEX 01 31:01:17  TRACK 10 AUDIO    TITLE "Pilgrims Progress"    PERFORMER "Procol Harum"    INDEX 00 35:58:62    INDEX 01 36:02:40

DR 12

foobar2000 1.3.9 / Dynamic Range Meter 1.1.1log date: 2017-11-18 14:11:21
--------------------------------------------------------------------------------Analyzed: Procol Harum / A Salty Dog (Original CD Edition)--------------------------------------------------------------------------------
DR Peak RMS Duration Track--------------------------------------------------------------------------------DR13 -1.64 dB -19.27 dB 4:42 01-A Salty DogDR12 -3.02 dB -17.71 dB 3:46 02-The Milk Of Human KindnessDR11 -7.06 dB -23.96 dB 3:43 03-Too Much Between UsDR13 -2.54 dB -17.53 dB 4:36 04-The Devil Came From KansasDR13 -4.69 dB -20.83 dB 4:30 05-BoredomDR15 -4.49 dB -21.81 dB 2:06 06-Juicy John PinkDR11 -3.29 dB -17.52 dB 3:47 07-Wreck Of The HesperusDR12 -2.48 dB -17.52 dB 3:51 08-All This And MoreDR13 -3.72 dB -19.94 dB 5:01 09-Crucifiction LandDR13 -0.36 dB -18.42 dB 4:30 10-Pilgrims Progress--------------------------------------------------------------------------------
Number of tracks: 10Official DR value: DR12
Samplerate: 44100 HzChannels: 2Bits per sample: 16Bitrate: 644 kbpsCodec: WavPack================================================================================

Об альбоме (сборнике)

Японский первопресс.
альбом уже представлен на трекере:
- издание 1997 года Repertoire [REP 4668-WY]
- издание 2009 года Salvo SALVOCD020]
- российское издание 2000 года PHCD 03/05
- издание 2012 года Victor VICP-75093
- издание Mobile Fidelity Sound Lab MFCD 823
- германский первопресс Cube Records 8.26288 ZR
- штатовский первопресс A&M Records СD3213
Описание на Discogs

To download the file disable ad blocking, and reload the page.

disable adblock How to disable ad blocking?

Download by magnet link 187 MB Download Torrent

Login using:

Similar topics



   
Current time is: 16-Nov 00:36 :: All times are UTC + 3