Shattered Sigh - Distances
Страна: Spain
Жанр: Death/Doom Metal
Носитель: CD
Год издания: 2017
Производитель диска: Endless Winter [EW-040]
Аудиокодек: FLAC (*.flac)
Тип рипа: image+.cue
Битрейт аудио: lossless
Продолжительность: 0:36:35
Источник: Original CD
Сканы: да
Треклист:
01. Under Your Slavery (6:58)
02. Timeless (7:10)
03. 12:14 (6:10)
04. Shattered Sigh (4:25)
05. Alone (5:01)
06. Thou Say Goodbye (6:52)

Отчёт ЕАС

Exact Audio Copy V1.1 from 23. June 2015
EAC extraction logfile from 19. November 2017, 0:14
Shattered Sigh / Distances
Used drive : Optiarc DVD RW AD-7200S Adapter: 5 ID: 0
Read mode : SecureUtilize accurate stream : YesDefeat audio cache : YesMake use of C2 pointers : No
Read offset correction : 48Overread into Lead-In and Lead-Out : NoFill up missing offset samples with silence : YesDelete leading and trailing silent blocks : NoNull samples used in CRC calculations : YesUsed interface : Installed external ASPI interface
Used output format : User Defined EncoderSelected bitrate : 128 kBit/sQuality : HighAdd ID3 tag : NoCommand line compressor : C:\Program Files\EAC\Exact Audio Copy\Flac\flac.exeAdditional command line options : -V -8 -T "Date=%year%" -T "Genre=%genre%" %source%
TOC of the extracted CD
Track | Start | Length | Start sector | End sector --------------------------------------------------------- 1 | 0:00.00 | 6:57.74 | 0 | 31348 2 | 6:57.74 | 7:09.40 | 31349 | 63563 3 | 14:07.39 | 6:09.45 | 63564 | 91283 4 | 20:17.09 | 4:24.42 | 91284 | 111125 5 | 24:41.51 | 5:00.54 | 111126 | 133679 6 | 29:42.30 | 6:52.19 | 133680 | 164598
Range status and errors
Selected range
Filename C:\darkbrides\Shattered Sigh - Distances.wav
Peak level 97.1 % Extraction speed 3.2 X Range quality 99.9 % Test CRC 125FA387 Copy CRC 125FA387 Copy OK
No errors occurred
AccurateRip summary
Track 1 not present in databaseTrack 2 not present in databaseTrack 3 not present in databaseTrack 4 not present in databaseTrack 5 not present in databaseTrack 6 not present in database
None of the tracks are present in the AccurateRip database
End of status report
---- CUETools DB Plugin V2.1.6
[CTDB TOCID: u0vl9LoZ8DN78Ng8A1XVcJnV2hw-] foundSubmit result: already submittedTrack | CTDB Status 1 | (1/2) Accurately ripped, or (1/2) differs in 180 samples @05:20:09 2 | (1/2) Accurately ripped, or (1/2) differs in 188 samples @04:42:52-04:42:53 3 | (2/2) Accurately ripped 4 | (2/2) Accurately ripped 5 | (2/2) Accurately ripped 6 | (2/2) Accurately ripped
==== Log checksum C9714EBB795395DEA5C6F761540C4712F7939A4FA9ACE1AC976ED0F352DC228F ====
-

If you like the topic, please click share to help develop our site.

To download the file disable ad blocking, and reload the page.

disable adblock How to disable ad blocking?

Download by magnet link 272 MB Download Torrent

Login using:

Similar topics



   
Current time is: 20-Apr 05:13 :: All times are UTC + 3