Age Of Storm - Discography
Страна: Czech Republic
Жанр: Death/Doom Metal
Аудиокодек: FLAC (*.flac)
Тип рипа: image+.cue
Битрейт аудио: lossless
Источник: Original CD/CDr
Сканы: да
-

1997 - Threshold Of Pain

Треклист:
01. Conscience (5:16)
02. Time Of Storm (4:41)
03. Give Your Soul (5:14)
04. Threshold Of Pain (5:40)
05. Dusk Fires (6:32)
06. The Internal World (4:19)
07. Brothers (6:24)
08. Clare (1:56)
09. Judgement (4:05)
total time 0:44:07
Доп. информация:
Leviathan Records [LVR CD-010]

Отчёт ЕАС

Exact Audio Copy V1.1 from 23. June 2015
EAC extraction logfile from 19. November 2017, 2:04
Age Of Storm / Threshold Of Pain
Used drive : ASUS DRW-1612BL Adapter: 2 ID: 0
Read mode : SecureUtilize accurate stream : YesDefeat audio cache : YesMake use of C2 pointers : No
Read offset correction : 6Overread into Lead-In and Lead-Out : NoFill up missing offset samples with silence : YesDelete leading and trailing silent blocks : NoNull samples used in CRC calculations : YesUsed interface : Installed external ASPI interface
Used output format : User Defined EncoderSelected bitrate : 128 kBit/sQuality : HighAdd ID3 tag : NoCommand line compressor : C:\Program Files\EAC\Exact Audio Copy\Flac\flac.exeAdditional command line options : -V -8 -T "Date=%year%" -T "Genre=%genre%" %source%
TOC of the extracted CD
Track | Start | Length | Start sector | End sector --------------------------------------------------------- 1 | 0:01.00 | 5:16.07 | 75 | 23781 2 | 5:17.07 | 4:41.13 | 23782 | 44869 3 | 9:58.20 | 5:13.45 | 44870 | 68389 4 | 15:11.65 | 5:40.20 | 68390 | 93909 5 | 20:52.10 | 6:31.62 | 93910 | 123296 6 | 27:23.72 | 4:18.38 | 123297 | 142684 7 | 31:42.35 | 6:23.55 | 142685 | 171464 8 | 38:06.15 | 1:56.15 | 171465 | 180179 9 | 40:02.30 | 4:04.55 | 180180 | 198534
Range status and errors
Selected range
Filename C:\darkbrides\Age Of Storm - Threshold Of Pain.wav
Peak level 89.1 % Extraction speed 7.8 X Range quality 99.9 % Test CRC 57FCB489 Copy CRC 57FCB489 Copy OK
No errors occurred
AccurateRip summary
Track 1 not present in databaseTrack 2 not present in databaseTrack 3 not present in databaseTrack 4 not present in databaseTrack 5 not present in databaseTrack 6 not present in databaseTrack 7 not present in databaseTrack 8 not present in databaseTrack 9 not present in database
None of the tracks are present in the AccurateRip database
End of status report
---- CUETools DB Plugin V2.1.6
[CTDB TOCID: RocvSOFGlI0NzUz7gRJCINYdvJ8-] foundSubmit result: RocvSOFGlI0NzUz7gRJCINYdvJ8- has been confirmedTrack | CTDB Status 1 | (1/1) Accurately ripped 2 | (1/1) Accurately ripped 3 | (1/1) Accurately ripped 4 | (1/1) Accurately ripped 5 | (1/1) Accurately ripped 6 | (1/1) Accurately ripped 7 | (1/1) Accurately ripped 8 | (1/1) Accurately ripped 9 | (1/1) Accurately ripped
==== Log checksum 7234EAFA56A4B2557F10B39D64CB578BC17AFA517065DE5EF45631C8DD8E5127 ====

1999 - 13th Chamber

Треклист:
01. Dies Irae (5:57)
02. 13th Chamber (6:15)
03. Magic Of Creation (5:54)
04. Arrive Of Kings (1:51)
05. Lillith (5:12)
06. 32 (0:31)
07. Bratri V Kristu (Bonus Track) (5:29)
total time 0:31:08
Доп. информация:
Stormhell Records [ShR-ADS-001]

Отчёт ЕАС

Exact Audio Copy V1.1 from 23. June 2015
EAC extraction logfile from 19. November 2017, 2:24
Age Of Storm / 13th Chamber
Used drive : ASUS DRW-1612BL Adapter: 2 ID: 0
Read mode : SecureUtilize accurate stream : YesDefeat audio cache : YesMake use of C2 pointers : No
Read offset correction : 6Overread into Lead-In and Lead-Out : NoFill up missing offset samples with silence : YesDelete leading and trailing silent blocks : NoNull samples used in CRC calculations : YesUsed interface : Installed external ASPI interface
Used output format : User Defined EncoderSelected bitrate : 128 kBit/sQuality : HighAdd ID3 tag : NoCommand line compressor : C:\Program Files\EAC\Exact Audio Copy\Flac\flac.exeAdditional command line options : -V -8 -T "Date=%year%" -T "Genre=%genre%" %source%
TOC of the extracted CD
Track | Start | Length | Start sector | End sector --------------------------------------------------------- 1 | 0:00.00 | 5:56.58 | 0 | 26757 2 | 5:56.58 | 6:15.25 | 26758 | 54907 3 | 12:12.08 | 5:54.00 | 54908 | 81457 4 | 18:06.08 | 1:50.67 | 81458 | 89774 5 | 19:57.00 | 5:11.45 | 89775 | 113144 6 | 25:08.45 | 0:31.00 | 113145 | 115469 7 | 25:39.45 | 5:28.63 | 115470 | 140132
Range status and errors
Selected range
Filename C:\darkbrides\Age Of Storm - 13th Chamber.wav
Peak level 100.0 % Extraction speed 4.1 X Range quality 100.0 % Test CRC 0B0F459E Copy CRC 0B0F459E Copy OK
No errors occurred
AccurateRip summary
Track 1 not present in databaseTrack 2 not present in databaseTrack 3 not present in databaseTrack 4 not present in databaseTrack 5 not present in databaseTrack 6 not present in databaseTrack 7 not present in database
None of the tracks are present in the AccurateRip database
End of status report
---- CUETools DB Plugin V2.1.6
[CTDB TOCID: GK43cjojzpIPG0I3eGTsFPeeudg-] disk not present in databaseSubmit result: GK43cjojzpIPG0I3eGTsFPeeudg- has been uploaded
==== Log checksum 518ED9455374F25B2F418733C768D08E596B68C6512463147C220DC77C741A07 ====
-

To download the file disable ad blocking, and reload the page.

disable adblock How to disable ad blocking?

Download by magnet link 540 MB Download Torrent

Login using:



   
Current time is: 20-Sep 00:20 :: All times are UTC ± 0