-Ингрид едет на Запад / Ingrid Goes West-«She'll Follow You»- -Страна: США
Жанр: драма, комедия
Год выпуска: 2017
Продолжительность: 01:38:39-Перевод: Любительский (многоголосый закадровый) "Paradox" & Omskbird records
Субтитры: нет
Оригинальная аудиодорожка: нет-Режиссер: Мэттью Спайсе / Matt Spicer-В ролях: Обри Плаза, Элизабет Олсен, О’Ши Джексон мл., Уайатт Расселл, Билли Магнуссен, Пом Клементьефф, Ханна Перл Атт, Джозеф Брин, Анджелика Амор, Мередит Хагнер-Описание: История психически неуравновешенной девушки Ингрид, которая маниакально следит за звездой соцсетей Тейлор Слоун, восхищаясь ее «идеальной», выставленной напоказ жизнью. Ингрид едет в Лос-Анджелес, чтобы быть ближе к своему кумиру, и девушки даже становятся подругами.- - -Качество видео: HDRip / BDRip 720p
Формат видео: AVI-Видео: XviD build 67, 720x304 (2.35:1), 23.976 fps, ~1891 kbps avg, 0.360 bit/pixel
Аудио: 48 kHz, AC3 Dolby Digital, 2/0 (L,R) ch, ~192 kbps avg-

MediaInfo

Complete name               : D:\Раздачи\Ингрид едет на Запад (2017) HDRip_ivanes20031987.aviFormat                      : AVIFormat/Info                 : Audio Video InterleaveFile size                   : 1.44 GiBDuration                    : 1 h 38 minOverall bit rate            : 2 093 kb/sWriting application         : VirtualDubMod 1.5.10.3 (build 2550/release)Writing library             : VirtualDubMod build 2550/release
VideoID : 0Format : MPEG-4 VisualFormat profile : Advanced Simple@L5Format settings, BVOP : 1Format settings, QPel : NoFormat settings, GMC : No warppointsFormat settings, Matrix : CustomCodec ID : XVIDCodec ID/Hint : XviDDuration : 1 h 38 minBit rate : 1 891 kb/sWidth : 720 pixelsHeight : 304 pixelsDisplay aspect ratio : 2.35:1Frame rate : 23.976 (24000/1001) FPSColor space : YUVChroma subsampling : 4:2:0Bit depth : 8 bitsScan type : ProgressiveCompression mode : LossyBits/(Pixel*Frame) : 0.360Stream size : 1.30 GiB (90%)Writing library : XviD 67
AudioID : 1Format : AC-3Format/Info : Audio Coding 3Format settings, Endianness : BigCodec ID : 2000Duration : 1 h 38 minBit rate mode : ConstantBit rate : 192 kb/sChannel(s) : 2 channelsChannel positions : Front: L RSampling rate : 48.0 kHzFrame rate : 31.250 FPS (1536 SPF)Bit depth : 16 bitsCompression mode : LossyStream size : 135 MiB (9%)Alignment : Split accross interleavesInterleave, duration : 42 ms (1.00 video frame)Interleave, preload duratio : 500 msService kind : Complete Main

Скриншоты

To download the file disable ad blocking, and reload the page.

disable adblock How to disable ad blocking?

Download by magnet link 1.44 GB Download Torrent

Login using:

Similar topics



   
Current time is: 20-Nov 14:11 :: All times are UTC + 3