Пираты Карибского моря: Мертвецы не рассказывают сказки / Pirates of the Caribbean: Dead Men Tell No Tales
Open Matte / Локализованный видеоряд
- Год выпуска: 2017
Страна: США / Walt Disney Pictures
Жанр: фэнтези, боевик, комедия, приключения
Продолжительность: 02:09:06
Перевод: Профессиональный (дублированный) BD EUR
Субтитры: русские (форсированные - вшитые)-Режиссер: Хоаким Роннинг / Joachim Roenning, Эспен Сандберг / Espen Sandberg-В ролях: Джонни Депп, Хавьер Бардем, Джеффри Раш, Брентон Туэйтс, Кая Скоделарио, Кевин МакНэлли, Голшифте Фарахани, Дэвид Уэнэм,Стивен Грэм, Энгус Барнетт.-Описание: Исчерпавший свою удачу капитан Джек Воробей обнаруживает, что за ним охотится его старый неприятель, ужасный капитан Салазар и его призрачные пираты. Они только что сбежали из Дьявольского треугольника и намерены уничтожить всех пиратов, включая Джека. Поможет спастись лишь могущественный артефакт — трезубец Посейдона, который дарует своему обладателю полный контроль над морями.-Рейтинг
kinopoisk.ru 6.599 (76 993)
imdb.com 6.70 (154 908)
-Качество видео: WEB-DLRip (исходник: BlueBird / WEB-DL / 1080p)
Формат видео: AVI | Sample
Видео: 704x400 (1.76:1), 23.976 fps, XviD build 73 ~1959 kbps avg, 0.29 bit/pixel
Аудио: 48 kHz, AC3 Dolby Digital, 3/2 (L,C,R,l,r) + LFE ch, ~448.00 kbps avg | RUS

Инфо

Формат : AVI
Формат/Информация : Audio Video Interleave
Профиль формата : OpenDML
Размер файла : 2,18 Гбайт
Продолжительность : 2 ч. 9 м.
Общий поток : 2419 Кбит/сек
Название фильма : Пираты Карибского моря: Мертвецы не рассказывают сказки / Pirates of the Caribbean: Dead Men Tell No Tales (2017)
Программа кодирования : VirtualDubMod 1.5.10.2 (build 2540/release)
Библиотека кодирования : VirtualDubMod build 2540/release
Примечание : WEB-DLRip by Seven
Видео
Идентификатор : 0
Формат : MPEG-4 Visual
Профиль формата : Advanced Simple@L5
Параметр BVOP формата : 1
Параметр QPel формата : Нет
Параметр GMC формата : Без точки перехода
Параметр матрицы формата : Выборочная
Идентификатор кодека : XVID
Идентификатор кодека/Подсказка : XviD
Продолжительность : 2 ч. 9 м.
Битрейт : 1959 Кбит/сек
Ширина : 704 пикселя
Высота : 400 пикселей
Соотношение сторон : 16:9
Частота кадров : 23,976 (24000/1001) кадра/сек
Цветовое пространство : YUV
Субдискретизация насыщенности : 4:2:0
Битовая глубина : 8 бит
Тип развёртки : Прогрессивная
Метод сжатия : С потерями
Бит/(Пиксели*Кадры) : 0.290
Размер потока : 1,77 Гбайт (81%)
Библиотека кодирования : XviD 73
Аудио
Идентификатор : 1
Формат : AC-3
Формат/Информация : Audio Coding 3
Параметр Endianness формата : Big
Идентификатор кодека : 2000
Продолжительность : 2 ч. 9 м.
Вид битрейта : Постоянный
Битрейт : 448 Кбит/сек
Каналы : 6 каналов
Расположение каналов : Front: L C R, Side: L R, LFE
Частота : 48,0 КГц
Частота кадров : 31,250 кадров/сек (1536 SPF)
Битовая глубина : 16 бит
Метод сжатия : С потерями
Размер потока : 414 Мбайт (19%)
Выравнивание : Разделение по промежуткам
Продолжительность промежутка : 42 мс. (1,00 видеокадр)
Время предзагрузки промежутка : 500 мс.

Исходник

Исходник: Pirates.of.the.Caribbean.Dead.Men.Tell.No.Tales.2017.Hybrid.1080p.OpenMatte.Rus.Ukr.Eng
Исходник Open Matte версии WEB DL 1080p с онлайн кинотеатра, по верх ее наложен Blu Ray для получения лучшего качества изображения.
Видео-ряд локализован.
Blu-ray vs Hybrid



Скриншоты

To download the file disable ad blocking, and reload the page.

disable adblock How to disable ad blocking?

Download by magnet link 2.18 GB Download Torrent

Login using:

Similar topics



   
Current time is: 15-Nov 23:56 :: All times are UTC + 3