-Тёмная башня / The Dark Tower-«Есть и другие миры, кроме этих»- -Страна: США
Жанр: ужасы, фантастика, фэнтези, боевик, приключения, вестерн
Год выпуска: 2017
Продолжительность: 01:34:44-Перевод: Профессиональный (дублированный)
Субтитры: русские, английские
Оригинальная аудиодорожка: английская-Режиссер: Николай Арсель / Nikolaj Arcel-В ролях: Идрис Эльба, Мэттью МакКонахи, Том Тейлор, Клаудия Ким, Фрэн Кренц, Эбби Ли, Джеки Эрл Хейли, Кэтрин Уинник, Дэннис Хэйсбёрт, Майкл Барбиери-Описание: Наш мир — не единственный из существующих. Заклятые враги Роланд Дискейн, последний из ордена стрелков, и Уолтер О’Дим, известный также как Человек в черном, ведут извечную борьбу. На кону — мифическая Темная Башня, последний оплот и надежда вселенной, без которой мир будет повержен в полный хаос и разрушение. Силам добра и зла суждено столкнуться в последней схватке, ведь Роланд Дискейн — единственный, кому под силу остановить Человека в черном, прежде чем тот разрушит Темную Башню.- - -Качество видео: BDRip / The.Dark.Tower.2017.REMUX.1080p.BluRay.AVC.DTS-HD.MA.5.1-iFT
Формат видео: AVI-Видео: XviD build 67, 720x304 (2.35:1), 23.976 fps, ~2378 kbps avg, 0.453 bit/pixel
Аудио 1: 48 kHz, AC3 Dolby Digital, 3/2 (L,C,R,l,r) + LFE ch, ~448 kbps avg
Аудио 2: 48 kHz, AC3 Dolby Digital, 3/2 (L,C,R,l,r) + LFE ch, ~448 kbps avg-

MediaInfo

Complete name               : D:\Раздачи\Темная башня (2017) BDRip_ivanes20031987\Темная башня (2017) BDRip_ivanes20031987.aviFormat                      : AVIFormat/Info                 : Audio Video InterleaveFormat profile              : OpenDMLFile size                   : 2.18 GiBDuration                    : 1 h 34 minOverall bit rate            : 3 292 kb/sWriting application         : VirtualDubMod 1.5.10.3 (build 2550/release)Writing library             : VirtualDubMod build 2550/release
VideoID : 0Format : MPEG-4 VisualFormat profile : Advanced Simple@L5Format settings, BVOP : 1Format settings, QPel : NoFormat settings, GMC : No warppointsFormat settings, Matrix : CustomCodec ID : XVIDCodec ID/Hint : XviDDuration : 1 h 34 minBit rate : 2 378 kb/sWidth : 720 pixelsHeight : 304 pixelsDisplay aspect ratio : 2.35:1Frame rate : 23.976 (24000/1001) FPSColor space : YUVChroma subsampling : 4:2:0Bit depth : 8 bitsScan type : ProgressiveCompression mode : LossyBits/(Pixel*Frame) : 0.453Stream size : 1.57 GiB (72%)Writing library : XviD 67
Audio #1ID : 1Format : AC-3Format/Info : Audio Coding 3Format settings, Endianness : BigCodec ID : 2000Duration : 1 h 34 minBit rate mode : ConstantBit rate : 448 kb/sChannel(s) : 6 channelsChannel positions : Front: L C R, Side: L R, LFESampling rate : 48.0 kHzFrame rate : 31.250 FPS (1536 SPF)Bit depth : 16 bitsCompression mode : LossyStream size : 304 MiB (14%)Alignment : Split accross interleavesInterleave, duration : 42 ms (1.00 video frame)Interleave, preload duratio : 500 msService kind : Complete Main
Audio #2ID : 2Format : AC-3Format/Info : Audio Coding 3Format settings, Endianness : BigCodec ID : 2000Duration : 1 h 34 minBit rate mode : ConstantBit rate : 448 kb/sChannel(s) : 6 channelsChannel positions : Front: L C R, Side: L R, LFESampling rate : 48.0 kHzFrame rate : 31.250 FPS (1536 SPF)Bit depth : 16 bitsCompression mode : LossyStream size : 304 MiB (14%)Alignment : Split accross interleavesInterleave, duration : 42 ms (1.00 video frame)Interleave, preload duratio : 500 msService kind : Complete Main

Скриншоты

To download the file disable ad blocking, and reload the page.

disable adblock How to disable ad blocking?

Download by magnet link 2.18 GB Download Torrent

Login using:

Similar topics

Тёмная башня / The Dark Tower (2017) BDRip 720p от KORSAR | D, A
 4.35 GB   24 | 4   20-Jul-18 18:30   0


   
Current time is: 16-Nov 00:33 :: All times are UTC + 3