Название: Tyketto
Исполнитель: Live From Milan
Год выпуска: 2017
Жанр: Hard Rock
Продолжительность: 01:17:27
Состав:
Bass Guitar – Chris Childs
Drums, Vocals – Michael Arbeeny
Guitar, Vocals – Chris Green
Keyboards, Vocals – Ged Rylands
Lead Vocals, Guitar - Danny Vaughn
Качество: BDRip 1080p
Формат: MKV
Видеокодек: H264
Аудиокодек: AC3, PCM
Видео: MPEG4 Video (H264), 1920x1080, 29.97fps, 12.0 Mbps
Аудио #1: Dolby AC3, 48000 Hz, 6ch, 448 kbps
Аудио #2: PCM, 48000 Hz, 2ch, 1536 kbps

Трек-лист:

01. Introduction
02. Sail Away
03. Strip Me Down
04. Nothing But Love
05. Walk On Fire
06. Lay Your Body Down
07. Standing Alone
08. Seasons
09. Burning Down Inside
10. Wings
11. Forever Young
12. Rescue Me
13. Dig In Deep
14. Reach

MediaInfo:

General
Unique ID : 194890350012610082483710254219880672912 (0x929E841EE068C5DAB75A55054F21AE90)
Complete name : D:DVDRip2017 Tyketto - Live From Milan.mkv
Format : Matroska
Format version : Version 4 / Version 2
File size : 7.57 GiB
Duration : 1 h 17 min
Overall bit rate : 14.0 Mb/s
Movie name : 2017 Tyketto - Live From Milan/ispolkom
Encoded date : UTC 2017-11-19 01:13:38
Writing application : mkvmerge v8.3.0 ('Over the Horizon') 64bit
Writing library : libebml v1.3.1 + libmatroska v1.4.2
Video
ID : 1
Format : AVC
Format/Info : Advanced Video Codec
Format profile : High@L4.1
Format settings : CABAC / 4 Ref Frames
Format settings, CABAC : Yes
Format settings, RefFrames : 4 frames
Codec ID : V_MPEG4/ISO/AVC
Duration : 1 h 17 min
Bit rate : 12.0 Mb/s
Width : 1 920 pixels
Height : 1 080 pixels
Display aspect ratio : 16:9
Frame rate mode : Constant
Frame rate : 29.970 (30000/1001) FPS
Color space : YUV
Chroma subsampling : 4:2:0
Bit depth : 8 bits
Scan type : Progressive
Bits/(Pixel*Frame) : 0.193
Stream size : 6.49 GiB (86%)
Title : 2017 Tyketto - Live From Milan
Writing library : x264 core 146 r2538 121396c
Encoding settings : cabac=1 / ref=4 / deblock=1:-1:-1 / analyse=0x3:0x133 / me=umh / subme=11 / psy=1 / psy_rd=1.00:0.15 / mixed_ref=1 / me_range=32 / chroma_me=1 / trellis=2 / 8x8dct=1 / cqm=0 / deadzone=21,11 / fast_pskip=0 / chroma_qp_offset=-3 / threads=18 / lookahead_threads=4 / sliced_threads=0 / nr=0 / decimate=1 / interlaced=0 / bluray_compat=0 / constrained_intra=0 / bframes=10 / b_pyramid=2 / b_adapt=2 / b_bias=0 / direct=3 / weightb=1 / open_gop=0 / weightp=2 / keyint=250 / keyint_min=25 / scenecut=40 / intra_refresh=0 / rc=2pass / mbtree=0 / bitrate=12000 / ratetol=1.0 / qcomp=0.60 / qpmin=0 / qpmax=69 / qpstep=4 / cplxblur=20.0 / qblur=0.5 / ip_ratio=1.40 / pb_ratio=1.30 / aq=2:1.00
Language : English
Default : Yes
Forced : No
Audio #1
ID : 2
Format : AC-3
Format/Info : Audio Coding 3
Format settings, Endianness : Big
Codec ID : A_AC3
Duration : 1 h 17 min
Bit rate mode : Constant
Bit rate : 448 kb/s
Channel(s) : 6 channels
Channel positions : Front: L C R, Side: L R, LFE
Sampling rate : 48.0 kHz
Frame rate : 31.250 FPS (1536 SPF)
Bit depth : 16 bits
Compression mode : Lossy
Stream size : 248 MiB (3%)
Title : AC3 5.1
Language : English
Service kind : Complete Main
Default : Yes
Forced : No
Audio #2
ID : 3
Format : PCM
Codec ID : A_PCM/INT/LIT
Duration : 1 h 17 min
Bit rate mode : Constant
Bit rate : 1 536 kb/s
Channel(s) : 2 channels
Sampling rate : 48.0 kHz
Frame rate : 32.000 FPS (1500 SPF)
Bit depth : 16 bits
Stream size : 851 MiB (11%)
Title : PCM 2.0
Language : English
Default : No
Forced : No
Menu
00:00:00.066 : en:Chapter 01
00:00:48.114 : en:Chapter 02
00:09:19.425 : en:Chapter 03
00:13:24.870 : en:Chapter 04
00:17:44.730 : en:Chapter 05
00:23:02.647 : en:Chapter 06
00:34:03.307 : en:Chapter 07
00:39:17.221 : en:Chapter 08
00:44:04.708 : en:Chapter 09
00:49:17.421 : en:Chapter 10
00:54:14.117 : en:Chapter 11
01:01:22.145 : en:Chapter 12
01:06:39.261 : en:Chapter 13
01:11:02.725 : en:Chapter 14

Скриншоты:

To download the file disable ad blocking, and reload the page.

disable adblock How to disable ad blocking?

Download by magnet link 7.57 GB Download Torrent

Login using:



   
Current time is: 23-Sep 16:45 :: All times are UTC ± 0