Информация о фильме
Название: Женщина-кошка
Оригинальное название: Catwoman
Год выхода: 2004
Жанр: фэнтези, боевик
Режиссер: Питоф
В ролях: Холли Берри, Бенджамин Брэтт, Шэрон Стоун, Ламбер Вильсон, Фрэнсис Конрой, Алекс Борштейн, Майкл Масси, Байрон Манн, Ким Смит, Кристофер Хейердал
О фильме:
Пейшинс Филипс работает дизайнером в крупной косметической компании, которая готовится выпустить на рынок новый продукт, замедляющий старение. Но у этой революционной новинки есть существенный недостаток, который компания тщательно скрывает и о котором случайно узнает Пэйшинс. Дальнейшие события меняют ее жизнь самым невероятным образом…

Выпущено: США
Студия: Warner Bros.
Продолжительность: 01:44:18
Перевод: Дублированный (лицензия) + Оригинал
Файл
Кодек: x264
Качество: BDRip (источник: Blu-ray Disc)
Видео: 1920x798 (2,40:1), 23.976 fps, 9562 kbps
Аудио #1: AC-3, 6 ch, 448 kbps (Rus)
Аудио #2: AC-3, 6 ch, 640 kbps (Eng)
Субтитры: Русские (Forced), Русские, Английские

Скриншоты

MI

Общее
Уникальный идентификатор : 238936454827561604928416669919618842450 (0xB3C17CC0BAA73C2199929D8A6878BF52)
Полное имя : F:Catwoman.2004.BDRip.1080p.Rus.Eng.mkv
Формат : Matroska
Версия формата : Version 2
Размер файла : 7,76 Гбайт
Продолжительность : 1 ч. 44 м.
Общий поток : 10,6 Мбит/сек
Название фильма : Женщина-кошка / Catwoman (2004)
Дата кодирования : UTC 2013-11-01 13:30:39
Программа кодирования : mkvmerge v5.8.0 ('No Sleep / Pillow') built on Sep 2 2012 15:37:04
Библиотека кодирования : libebml v1.2.3 + libmatroska v1.3.0
Attachment : Yes
Видео
Идентификатор : 1
Формат : AVC
Формат/Информация : Advanced Video Codec
Профиль формата : High@L4.1
Параметр CABAC формата : Да
Параметр ReFrames формата : 5 кадров
Идентификатор кодека : V_MPEG4/ISO/AVC
Продолжительность : 1 ч. 44 м.
Битрейт : 9562 Кбит/сек
Ширина : 1920 пикселей
Высота : 798 пикселей
Соотношение сторон : 2,40:1
Режим частоты кадров : Постоянный
Частота кадров : 23,976 кадра/сек
Цветовое пространство : YUV
Субдискретизация насыщенности : 4:2:0
Битовая глубина : 8 бит
Тип развёртки : Прогрессивная
Бит/(Пиксели*Кадры) : 0.260
Размер потока : 6,81 Гбайт (88%)
Заголовок : Release by N1NT3NDO
Библиотека кодирования : x264 core 138 r2358 9e941d1
Настройки программы : cabac=1 / ref=5 / deblock=1:-3:-3 / analyse=0x3:0x133 / me=umh / subme=11 / psy=1 / psy_rd=1.00:0.00 / mixed_ref=1 / me_range=32 / chroma_me=1 / trellis=2 / 8x8dct=1 / cqm=0 / deadzone=21,11 / fast_pskip=0 / chroma_qp_offset=-2 / threads=12 / lookahead_threads=1 / sliced_threads=0 / nr=0 / decimate=0 / interlaced=0 / bluray_compat=0 / constrained_intra=0 / bframes=6 / b_pyramid=2 / b_adapt=2 / b_bias=0 / direct=3 / weightb=1 / open_gop=0 / weightp=2 / keyint=240 / keyint_min=23 / scenecut=40 / intra_refresh=0 / rc_lookahead=80 / rc=2pass / mbtree=0 / bitrate=9562 / ratetol=1.0 / qcomp=0.60 / qpmin=0 / qpmax=69 / qpstep=4 / cplxblur=20.0 / qblur=0.5 / vbv_maxrate=50000 / vbv_bufsize=62500 / nal_hrd=none / ip_ratio=1.40 / pb_ratio=1.30 / aq=2:1.00
Язык : English
Default : Да
Forced : Нет
Аудио #1
Идентификатор : 2
Формат : AC-3
Формат/Информация : Audio Coding 3
Расширение режима : CM (complete main)
Параметр Endianness формата : Big
Идентификатор кодека : A_AC3
Продолжительность : 1 ч. 44 м.
Вид битрейта : Постоянный
Битрейт : 448 Кбит/сек
Каналы : 6 каналов
Расположение каналов : Front: L C R, Side: L R, LFE
Частота : 48,0 КГц
Битовая глубина : 16 бит
Метод сжатия : С потерями
Размер потока : 334 Мбайт (4%)
Заголовок : Rus
Язык : Russian
Default : Да
Forced : Нет
Аудио #2
Идентификатор : 3
Формат : AC-3
Формат/Информация : Audio Coding 3
Расширение режима : CM (complete main)
Параметр Endianness формата : Big
Идентификатор кодека : A_AC3
Продолжительность : 1 ч. 44 м.
Вид битрейта : Постоянный
Битрейт : 640 Кбит/сек
Каналы : 6 каналов
Расположение каналов : Front: L C R, Side: L R, LFE
Частота : 48,0 КГц
Битовая глубина : 16 бит
Метод сжатия : С потерями
Размер потока : 477 Мбайт (6%)
Заголовок : Eng
Язык : English
Default : Нет
Forced : Нет
Текст #1
Идентификатор : 4
Формат : UTF-8
Идентификатор кодека : S_TEXT/UTF8
Идентификатор кодека/Информация : UTF-8 Plain Text
Заголовок : Rus (Forced)
Язык : Russian
Default : Да
Forced : Нет
Текст #2
Идентификатор : 5
Формат : UTF-8
Идентификатор кодека : S_TEXT/UTF8
Идентификатор кодека/Информация : UTF-8 Plain Text
Заголовок : Rus
Язык : Russian
Default : Нет
Forced : Нет
Текст #3
Идентификатор : 6
Формат : UTF-8
Идентификатор кодека : S_TEXT/UTF8
Идентификатор кодека/Информация : UTF-8 Plain Text
Заголовок : Eng
Язык : English
Default : Нет
Forced : Нет
Меню
00:00:00.000 : :Chapter 01
00:03:35.965 : :Chapter 02
00:07:58.895 : :Chapter 03
00:12:16.861 : :Chapter 04
00:16:21.105 : :Chapter 05
00:21:28.829 : :Chapter 06
00:25:10.342 : :Chapter 07
00:27:39.824 : :Chapter 08
00:30:04.886 : :Chapter 09
00:33:24.961 : :Chapter 10
00:36:21.971 : :Chapter 11
00:39:06.469 : :Chapter 12
00:42:11.570 : :Chapter 13
00:46:38.462 : :Chapter 14
00:51:10.108 : :Chapter 15
00:55:15.729 : :Chapter 16
00:58:00.351 : :Chapter 17
01:00:31.377 : :Chapter 18
01:03:56.165 : :Chapter 19
01:06:13.135 : :Chapter 20
01:10:25.471 : :Chapter 21
01:14:20.330 : :Chapter 22
01:17:53.168 : :Chapter 23
01:20:49.219 : :Chapter 24
01:24:12.088 : :Chapter 25
01:26:34.939 : :Chapter 26
01:28:42.025 : :Chapter 27
01:31:49.587 : :Chapter 28
01:37:03.567 : :Chapter 29
01:38:34.575 : :Chapter 30

To download the file disable ad blocking, and reload the page.

disable adblock How to disable ad blocking?

Download by magnet link 7.76 GB Download Torrent

Login using:

Similar topics

Женщина-кошка / Catwoman (2004) BDRip 720p
 4.37 GB   0 | 0   19-Nov-17 09:30   0


   
Current time is: 18-Sep 17:09 :: All times are UTC ± 0