Барракуда / Barracuda
Страна: США
Жанр: триллер, драма, криминал
Год выпуска: 2017
Продолжительность: 01:41:14-Перевод: Профессиональный (многоголосый закадровый) | AlexFilm
Субтитры: нет
Оригинальная аудиодорожка: нет-Режиссер: Джулия Гэльперин / Julia Galperin-В ролях: Эллисон Толман, Софи Рид, ДжоБет Уильямс, Луис Бордонада, Ларри Дотсон, Тэннер Бирд, Моника Строу, Дэннис Алком-Описание: Синалоа приезжает в Техас, чтобы познакомиться со своей сводной сестрой, но та о ней ничего не знала и очень удивилась. Их отец был кантри-музыкантом, и Синалоа переняла у отца любовь к кантри-музыке, тоже став музыкантом. Она ревностно относится к памяти отца и не задумываясь пресекает любое неуважение семьи, проявленное к его памяти. Её поведение кажется всем странным и подозрительным, но все списывают это на её талант. Для чего всё же приехала Синалоа в Техас и что она задумала?-Качество видео: WEB-DLRip | Barracuda.2017 (WEB-DL 720p)
Формат видео: AVI
Видео: 672x368 (1.83:1), 23.976 fps, XviD build 73 ~890 kbps avg, 0.15 bit/pixel
Аудио: 48 kHz, MPEG Layer 3, 2 ch, ~128.00 kbps avg-Скачать сэмпл-

Доп. инфо о переводе

Перевод: Леонид Дмитриев
Роли озвучивали: Маргарита Корш, Екатерина Муравицкая, Кирилл Патрино, Михаил Суслов
Очистка от рекламы: Atla22

MediaInfo


Format                      : AVI
Format/Info                 : Audio Video Interleave
File size                   : 744 MiB
Duration                    : 1 h 41 min
Overall bit rate            : 1 028 kb/s
Writing application         : VirtualDubMod 1.5.10.3 | www.virtualdub-fr.org || (build 2550/release)
Writing library             : VirtualDubMod build 2550/release
Video
ID                          : 0
Format                      : MPEG-4 Visual
Format profile              : Advanced Simple@L5
Format settings             : BVOP1 / Custom Matrix
Format settings, BVOP       : 1
Format settings, QPel       : No
Format settings, GMC        : No warppoints
Format settings, Matrix     : Custom
Codec ID                    : XVID
Codec ID/Hint               : XviD
Duration                    : 1 h 41 min
Bit rate                    : 890 kb/s
Width                       : 672 pixels
Height                      : 368 pixels
Display aspect ratio        : 1.85:1
Frame rate                  : 23.976 (24000/1001) FPS
Color space                 : YUV
Chroma subsampling          : 4:2:0
Bit depth                   : 8 bits
Scan type                   : Progressive
Compression mode            : Lossy
Bits/(Pixel*Frame)          : 0.150
Stream size                 : 645 MiB (87%)
Writing library             : XviD 73
Audio
ID                          : 1
Format                      : MPEG Audio
Format version              : Version 1
Format profile              : Layer 3
Codec ID                    : 55
Codec ID/Hint               : MP3
Duration                    : 1 h 41 min
Bit rate mode               : Constant
Bit rate                    : 128 kb/s
Channel(s)                  : 2 channels
Sampling rate               : 48.0 kHz
Compression mode            : Lossy
Stream size                 : 92.7 MiB (12%)
Alignment                   : Aligned on interleaves
Interleave, duration        : 42  ms (1.00 video frame)
Interleave, preload duratio : 504  ms
Writing library             : LAME3.99r
Encoding settings           : -m s -V 4 -q 2 -lowpass 17 -b 128

Скриншоты

To download the file disable ad blocking, and reload the page.

disable adblock How to disable ad blocking?

Download by magnet link 744 MB Download Torrent

Login using:

Similar topics

Барракуда / Barracuda (2017) WEB-DL 720p | AlexFilm
 2.66 GB   1 | 7   13-Nov-17 17:30   0


   
Current time is: 20-Sep 00:38 :: All times are UTC ± 0