-Барракуда / Barracuda-«A strange woman comes to Texas to meet her half-sister and stake a claim to the family music legacy-one way or another»- Страна: США
Жанр: триллер, драма, криминал
Год выпуска: 2017
Продолжительность: 01:41:14-Перевод: Профессиональный (многоголосый закадровый) AlexFilm
Субтитры: нет
Оригинальная аудиодорожка: нет-Режиссер: Джулия Гэльперин / Julia Galperin-В ролях: Эллисон Толман, Софи Рид, ДжоБет Уильямс, Луис Бордонада, Ларри Дотсон, Тэннер Бирд, Моника Строу, Дэннис Алком-Описание: Синалоа приезжает в Техас, чтобы познакомиться со своей сводной сестрой, но та о ней ничего не знала и очень удивилась. Их отец был кантри-музыкантом, и Синалоа переняла у отца любовь к кантри-музыке, тоже став музыкантом. Она ревностно относится к памяти отца и не задумываясь пресекает любое неуважение семьи, проявленное к его памяти. Её поведение кажется всем странным и подозрительным, но все списывают это на её талант. Для чего всё же приехала Синалоа в Техас и что она задумала?- - -Качество видео: WEB-DLRip / WEB-DL 720p
Формат видео: AVI-Видео: XviD build 67, 704x384 (1.85:1), 23.976 fps, ~1860 kbps avg, 0.287 bit/pixel
Аудио: 48 kHz, AC3 Dolby Digital, 2/0 (L,R) ch, ~192 kbps avg-

MediaInfo

Complete name               : D:\Раздачи\Барракуда (2017) WEB-DLRip_ivanes20031987.aviFormat                      : AVIFormat/Info                 : Audio Video InterleaveFile size                   : 1.46 GiBDuration                    : 1 h 41 minOverall bit rate            : 2 061 kb/sWriting application         : VirtualDubMod 1.5.10.3 (build 2550/release)Writing library             : VirtualDubMod build 2550/release
VideoID : 0Format : MPEG-4 VisualFormat profile : Advanced Simple@L5Format settings, BVOP : 1Format settings, QPel : NoFormat settings, GMC : No warppointsFormat settings, Matrix : CustomCodec ID : XVIDCodec ID/Hint : XviDDuration : 1 h 41 minBit rate : 1 860 kb/sWidth : 704 pixelsHeight : 384 pixelsDisplay aspect ratio : 1.85:1Frame rate : 23.976 (24000/1001) FPSColor space : YUVChroma subsampling : 4:2:0Bit depth : 8 bitsScan type : ProgressiveCompression mode : LossyBits/(Pixel*Frame) : 0.287Stream size : 1.32 GiB (90%)Writing library : XviD 67
AudioID : 1Format : AC-3Format/Info : Audio Coding 3Format settings, Endianness : BigCodec ID : 2000Duration : 1 h 41 minBit rate mode : ConstantBit rate : 192 kb/sChannel(s) : 2 channelsChannel positions : Front: L RSampling rate : 48.0 kHzFrame rate : 31.250 FPS (1536 SPF)Bit depth : 16 bitsCompression mode : LossyStream size : 139 MiB (9%)Alignment : Split accross interleavesInterleave, duration : 42 ms (1.00 video frame)Interleave, preload duratio : 500 msService kind : Complete Main

Скриншоты

To download the file disable ad blocking, and reload the page.

disable adblock How to disable ad blocking?

Download by magnet link 1.46 GB Download Torrent

Login using:

Similar topics

Барракуда / Barracuda (2017) WEB-DL 720p | AlexFilm
 2.66 GB   1 | 0   13-Nov-17 20:30   0


   
Current time is: 15-Nov 22:40 :: All times are UTC + 3