Голубки / Love Birds / Zug Yonim
Страна: Израиль
Жанр: драма
Год выпуска: 2017
Продолжительность: 01:09:45
Перевод: Субтитры
Субтитры: русские (softsub, ASS), иврит (hardsub)
Оригинальная аудиодорожка: иврит
Режиссер: Довер Кошашвили / Dover Koshashvili
В ролях: Асаф Гольдштейн, Таль Тальмон, Ави Азулай, Рони Дотан
Описание: В гостинице у моря Алон, молодой мужчина, с цветами и подарочной коробкой ищет свою жену, Тамару, которая сняла номер-люкс, чтобы отметить десятую годовщину их брака. Но в номере отеля, вместо жены, Алон находит незнакомку, которая начинает настойчиво домогаться его...
Доп. информация: IMDb, КиноПоиск
Сэмпл: http://www.mediafire.com/file/8b4q3xf58amwxow/Sample_Love_Birds.avi
Качество видео: HDTVRip
Формат видео: AVI
Видео: XviD 624х352 16:9 25 кадров/сек 1437 Кбит/сек
Аудио: MP3 48 КГц 2 канала 128 Кбит/сек
Формат субтитров: softsub (ASS)

Образец субтитров

Dialogue: 0,0:19:17.16,0:19:20.20,Default,,0,0,0,,Вам нужна помощь?
Dialogue: 0,0:19:20.30,0:19:22.54,Default,,0,0,0,,Ты один?
Dialogue: 0,0:19:23.32,0:19:25.99,Default,,0,0,0,,Я жду жену.
Dialogue: 0,0:19:26.09,0:19:28.23,Default,,0,0,0,,Хочешь квартет?
Dialogue: 0,0:19:28.33,0:19:29.98,Default,,0,0,0,,Ясно.
Dialogue: 0,0:19:30.00,0:19:32.47,Default,,0,0,0,,Сними полотенце.
Dialogue: 0,0:19:32.48,0:19:35.27,Default,,0,0,0,,Я - не чиппендейл.
Dialogue: 0,0:19:35.28,0:19:36.79,Default,,0,0,0,,Он стыдливый.
Dialogue: 0,0:19:36.80,0:19:40.06,Default,,0,0,0,,Я не игрок.
Dialogue: 0,0:19:40.16,0:19:42.66,Default,,0,0,0,,Намекни мне.
Dialogue: 0,0:19:46.76,0:19:48.83,Default,,0,0,0,,Стандартный.
Dialogue: 0,0:19:48.84,0:19:50.87,Default,,0,0,0,,Хорошо, но он не трахает меня.
Dialogue: 0,0:19:50.88,0:19:53.39,Default,,0,0,0,,Ты - бисексуал?
Dialogue: 0,0:19:53.40,0:19:58.40,Default,,0,0,0,,Не тогда, когда леди рядом.
Dialogue: 0,0:20:06.42,0:20:08.95,Default,,0,0,0,,У нас или у вас?
Dialogue: 0,0:20:11.47,0:20:14.31,Default,,0,0,0,,Я склоняюсь в сторону трио.
Dialogue: 0,0:20:18.00,0:20:21.12,Default,,0,0,0,,Мы будем рады побаловать тебя.
Dialogue: 0,0:20:22.04,0:20:25.49,Default,,0,0,0,,Ты не в моём вкусе.
Dialogue: 0,0:20:32.16,0:20:35.75,Default,,0,0,0,,Мне лучше всего, когда ты счастлива.
Dialogue: 0,0:20:35.76,0:20:37.71,Default,,0,0,0,,Ты не любишь меня.
Dialogue: 0,0:20:37.81,0:20:41.08,Default,,0,0,0,,Я женился на тебе, разве нет?
Dialogue: 0,0:20:43.41,0:20:45.79,Default,,0,0,0,,Он - красавчик.

MediaInfo

ОбщееПолное имя                               : Love Birds.aviФормат                                   : AVIФормат/Информация                        : Audio Video InterleaveРазмер файла                             : 787 МбайтПродолжительность                        : 1 ч. 9 м.Режим общего битрейта                    : ПеременныйОбщий поток                              : 1578 Кбит/секПрограмма кодирования                    : VirtualDubMod 1.5.10.2 (build 2540/release)Библиотека кодирования                   : VirtualDubMod build 2540/release
ВидеоИдентификатор : 0Формат : MPEG-4 VisualПрофиль формата : Advanced [email protected]Настройки формата : BVOP2Параметр BVOP формата : 2Параметр QPel формата : НетПараметр GMC формата : Без точки переходаПараметр матрицы формата : Default (H.263)Идентификатор кодека : XVIDИдентификатор кодека/Подсказка : XviDПродолжительность : 1 ч. 9 м.Битрейт : 1437 Кбит/секШирина : 624 пикселяВысота : 352 пикселяСоотношение сторон : 16:9Частота кадров : 25,000 кадров/секЦветовое пространство : YUVСубдискретизация насыщенности : 4:2:0Битовая глубина : 8 битТип развёртки : ЧересстрочнаяПорядок развёртки : Нижнее поле первоеМетод сжатия : С потерямиБит/(Пиксели*Кадры) : 0.262Размер потока : 717 Мбайт (91%)Библиотека кодирования : XviD 64
АудиоИдентификатор : 1Формат : MPEG AudioВерсия формата : Version 1Профиль формата : Layer 3Настройки формата : Joint stereo / MS StereoИдентификатор кодека : 55Идентификатор кодека/Подсказка : MP3Продолжительность : 1 ч. 9 м.Вид битрейта : ПеременныйБитрейт : 128 Кбит/секКаналы : 2 каналаЧастота : 48,0 КГцЧастота кадров : 41,667 кадра/сек (1152 SPF)Метод сжатия : С потерямиРазмер потока : 64,0 Мбайт (8%)Выравнивание : Соединение по промежуткамПродолжительность промежутка : 24 мс. (0,60 видеокадр)Время предзагрузки промежутка : 491 мс.Библиотека кодирования : LAME3.90.Настройки программы : -m j -V 4 -q 2 -lowpass 17.6 --abr 128

Скриншот c названием фильма

Скриншоты





If you like the topic, please click share to help develop our site.

To download the file disable ad blocking, and reload the page.

disable adblock How to disable ad blocking?

Download by magnet link 787 MB Download Torrent

Login using:

Similar topics



   
Current time is: 25-Jun 11:00 :: All times are UTC + 3