Kingsman: Золотое кольцо / Kingsman: The Golden Circle«Reports of my death have been greatly exaggerated»- Страна: Великобритания, США
Жанр: боевик, комедия, приключения
Год выпуска: 2017
Продолжительность: 02:21:02
Перевод: Профессиональный (дублированный) (iTunes)
Оригинальная аудиодорожка: английский
Субтитры: русские (форс., полные - ненорматив. лексика) английские (полные)
Навигация по главам: есть
Режиссер: Мэттью Вон / Matthew Vaughn
В ролях: Тэрон Эджертон (Eggsy), Колин Фёрт (Harry Hart), Марк Стронг (Merlin), Джулианна Мур (Poppy), Холли Берри (Ginger), Педро Паскаль (Whiskey), Ченнинг Татум (Tequila), Джефф Бриджес (Champ), Эдвард Холкрофт (Charlie), Ханна Альстрём (Princess Tilde), Гордон Александр (Kingsman Cab Driver), Кэлвин Демба (Brandon)
Описание: Когда штаб-квартиры секретной службы Kingsman уничтожены, и весь мир оказался в заложниках у неизвестных, британские суперагенты обнаруживают, что в один день вместе с их организацией была еще создана американская разведка - Statesman. Теперь эти две элитные спецслужбы должны объединиться и бросить вызов общему безжалостному врагу, чтобы спасти мир, то есть заняться тем, что для Эггси становится обычным делом...- -Качество: BDRip-AVC (исходник - Kingsman.The.Golden.Circle.2017.REMUX.1080p.BluRay.AVC.DTS-HD.MA.7.1-iFT)
Формат видео: MKV
Видео: x264, 960х402 (2.40:1) 23,976 fps, ~1559 kbps, 0.169 bit/pixel
Аудио 1: 48 kHz, AC3 Dolby Digital, 3/2 (L,C,R,l,r) + LFE ch, ~384 kbps [русский]
Аудио 2: 48 kHz, AC3 Dolby Digital, 2/0 (L,R) ch, ~192 kbps [английский]
Формат субтитров: softsub (SRT)-

MediaInfo | x264 log

Format : Matroska
Format version : Version 4 / Version 2
File size : 2.15 GiB
Duration : 2 h 21 min
Overall bit rate : 2 178 kb/s
Movie name : Kingsman: Золотое кольцо / Kingsman: The Golden Circle (2017) :: AFM ::
Encoded date : UTC 2017-12-29 11:37:24
Writing application : mkvmerge v8.3.0 ('Over the Horizon') 32bit
Writing library : libebml v1.3.1 + libmatroska v1.4.2
Cover : Yes
Attachments : cover.jpg
Video
ID : 1
Format : AVC
Format/Info : Advanced Video Codec
Format profile : [email protected]
Format settings, CABAC : Yes
Format settings, RefFrames : 12 frames
Codec ID : V_MPEG4/ISO/AVC
Duration : 2 h 21 min
Bit rate : 1 559 kb/s
Width : 960 pixels
Height : 402 pixels
Display aspect ratio : 2.40:1
Frame rate mode : Constant
Frame rate : 23.976 (24000/1001) FPS
Color space : YUV
Chroma subsampling : 4:2:0
Bit depth : 8 bits
Scan type : Progressive
Bits/(Pixel*Frame) : 0.169
Stream size : 1.54 GiB (72%)
Title : BDRip by AFM
Writing library : x264 core 152 r2851+45 9658d1a 7mod [[email protected] X86_64]
Encoding settings : cabac=1 / ref=12 / deblock=1:-2:-1 / analyse=0x3:0x133 / me=umh / subme=10 / psy=1 / fade_compensate=0.00 / psy_rd=1.00:0.00 / mixed_ref=1 / me_range=32 / chroma_me=0 / trellis=2 / 8x8dct=1 / cqm=0 / deadzone=21,11 / fast_pskip=0 / chroma_qp_offset=-2 / threads=6 / lookahead_threads=1 / sliced_threads=0 / nr=0 / decimate=1 / interlaced=0 / bluray_compat=0 / constrained_intra=0 / fgo=0 / bframes=14 / b_pyramid=2 / b_adapt=2 / b_bias=0 / direct=1 / weightb=1 / open_gop=0 / weightp=2 / keyint=240 / keyint_min=23 / scenecut=40 / intra_refresh=0 / rc_lookahead=90 / rc=crf / mbtree=0 / crf=18.5000 / qcomp=0.65 / qpmin=0:0:0 / qpmax=69:69:69 / qpstep=4 / vbv_maxrate=50000 / vbv_bufsize=62500 / crf_max=0.0 / nal_hrd=none / filler=0 / ip_ratio=1.35 / pb_ratio=1.20 / aq=3:0.85 / aq-sensitivity=10.00 / aq-factor=1.00:1.00:1.00 / aq2=0 / aq3=0 / zones=194518,202890,q=30
Language : English
Default : Yes
Forced : No
Audio #1
ID : 2
Format : AC-3
Format/Info : Audio Coding 3
Format settings, Endianness : Big
Codec ID : A_AC3
Duration : 2 h 21 min
Bit rate mode : Constant
Bit rate : 384 kb/s
Channel(s) : 6 channels
Channel positions : Front: L C R, Side: L R, LFE
Sampling rate : 48.0 kHz
Frame rate : 31.250 FPS (1536 SPF)
Bit depth : 16 bits
Compression mode : Lossy
Stream size : 387 MiB (18%)
Title : Dub, AC3 5.1 ~384 kbps
Language : Russian
Service kind : Complete Main
Default : Yes
Forced : No
Audio #2
ID : 3
Format : AC-3
Format/Info : Audio Coding 3
Format settings, Endianness : Big
Codec ID : A_AC3
Duration : 2 h 21 min
Bit rate mode : Constant
Bit rate : 192 kb/s
Channel(s) : 2 channels
Channel positions : Front: L R
Sampling rate : 48.0 kHz
Frame rate : 31.250 FPS (1536 SPF)
Bit depth : 16 bits
Compression mode : Lossy
Stream size : 194 MiB (9%)
Title : Original, AC3 2.0 ~192 kbps
Language : English
Service kind : Complete Main
Default : No
Forced : No
Text #1
ID : 4
Format : UTF-8
Codec ID : S_TEXT/UTF8
Codec ID/Info : UTF-8 Plain Text
Title : forced
Language : Russian
Default : Yes
Forced : No
Text #2
ID : 5
Format : UTF-8
Codec ID : S_TEXT/UTF8
Codec ID/Info : UTF-8 Plain Text
Language : Russian
Default : No
Forced : No
Text #3
ID : 6
Format : UTF-8
Codec ID : S_TEXT/UTF8
Codec ID/Info : UTF-8 Plain Text
Language : English
Default : No
Forced : No
Menu
00:00:00.000 : en:Chapter 1
00:04:51.957 : en:Chapter 2
00:09:39.452 : en:Chapter 3
00:13:36.605 : en:Chapter 4
00:18:54.297 : en:Chapter 5
00:24:57.284 : en:Chapter 6
00:28:43.343 : en:Chapter 7
00:32:52.300 : en:Chapter 8
00:39:18.728 : en:Chapter 9
00:43:21.846 : en:Chapter 10
00:48:26.567 : en:Chapter 11
00:53:54.102 : en:Chapter 12
00:58:31.254 : en:Chapter 13
01:05:04.897 : en:Chapter 14
01:09:52.434 : en:Chapter 15
01:13:34.739 : en:Chapter 16
01:19:41.856 : en:Chapter 17
01:23:45.099 : en:Chapter 18
01:28:55.284 : en:Chapter 19
01:33:25.220 : en:Chapter 20
01:40:14.754 : en:Chapter 21
01:45:03.250 : en:Chapter 22
01:49:38.483 : en:Chapter 23
01:55:15.987 : en:Chapter 24
02:01:40.830 : en:Chapter 25
02:05:44.031 : en:Chapter 26
02:12:36.401 : en:Chapter 27
02:15:15.268 : en:Chapter 28

x264

x264 [info]: frame I:2153 Avg QP:17.33 size: 56141
x264 [info]: frame P:45556 Avg QP:19.58 size: 17036
x264 [info]: frame B:155181 Avg QP:21.88 size: 5128
x264 [info]: consecutive B-frames: 2.8% 2.9% 8.3% 26.5% 18.4% 25.9% 5.5% 3.5% 3.0% 1.0% 0.6% 0.5% 0.2% 0.4% 0.6%
x264 [info]: mb I I16..4: 5.2% 65.6% 29.2%
x264 [info]: mb P I16..4: 1.4% 11.0% 3.3% P16..4: 37.7% 20.0% 16.0% 1.3% 0.5% skip: 8.9%
x264 [info]: mb B I16..4: 0.1% 1.1% 0.5% B16..8: 34.6% 10.3% 2.6% direct: 4.7% skip:46.1% L0:40.3% L1:43.2% BI:16.6%
x264 [info]: 8x8 transform intra:68.3% inter:62.0%
x264 [info]: coded y,uvDC,uvAC intra: 80.3% 83.7% 59.9% inter: 17.5% 16.7% 5.3%
x264 [info]: i16 v,h,dc,p: 31% 18% 6% 45%
x264 [info]: i8 v,h,dc,ddl,ddr,vr,hd,vl,hu: 19% 12% 6% 7% 11% 11% 12% 10% 12%
x264 [info]: i4 v,h,dc,ddl,ddr,vr,hd,vl,hu: 22% 11% 4% 8% 12% 11% 12% 9% 12%
x264 [info]: i8c dc,h,v,p: 37% 27% 22% 14%
x264 [info]: Weighted P-Frames: Y:96.5% UV:2.4%
x264 [info]: ref P L0: 53.5% 13.8% 13.9% 5.0% 3.8% 2.8% 2.3% 1.2% 1.1% 0.9% 0.8% 0.8% 0.1% 0.0%
x264 [info]: ref B L0: 77.0% 10.2% 5.0% 2.3% 1.6% 1.2% 1.0% 0.6% 0.5% 0.4% 0.2%
x264 [info]: ref B L1: 94.4% 5.6%
x264 [info]: kb/s:1600.19

Скриншоты

с названием


If you like the topic, please click share to help develop our site.

To download the file disable ad blocking, and reload the page.

disable adblock How to disable ad blocking?

Download by magnet link 2.15 GB Download Torrent

Login using:

Similar topics



   
Current time is: 25-Jun 10:47 :: All times are UTC + 3