Название: Плохой лейтенант
Оригинальное название: The Bad Lieutenant: Port of Call New Orleans
Год выпуска: 2009
Жанр: Драма, криминал
Режиссер: Вернер Херцог
В ролях: Николас Кейдж, Ева Мендес, Вэл Килмер, Файруза Балк, Иксзибит, Шон Хэтоси, Дженнифер Кулидж, Том Бауэр, Вонди Куртис-Холл, Брэд Дуриф, Дэнзел Уитакер, Ирма П. Холл, Ши Уигхэм, Майкл Шеннон
О фильме: Грязный полицейский Терренс МакДонаг, крупно замешанный в торговле наркотиками, азартных играх, сексе и воровстве, расследует убийство. Параллельно он спасает заключенного во время урагана Катрина и затем пытается устроить ему нормальную жизнь.

Выпущено: США, Edward R. Pressman Film Corporation, Lieutenant Productions, Millennium Films, Nu-Image Films
Продолжительность: 02:02:10
Перевод:
1: Русский: профессиональный многоголосый закадровый
2: Русский: одноголосый закадровый (авторский) Ю.Немахов
3: Украинский: профессиональный двухголосый закадровый - 1+1
4: Английский: оригинал-

MediaInfo:

Общее
Уникальный идентификатор : 199066322647685532071837610364099074842 (0x95C2C777B9D72A139D1365A4EA8B9B1A)
Полное имя : D:/Bad Lieutenant.Port.of.Call.New.Orleans.2009.BDRip.1080p.x264.2xRus.Ukr.Eng.mkv
Формат : Matroska
Версия формата : Version 4 / Version 2
Размер файла : 11,2 Гбайт
Продолжительность : 2 ч. 2 м.
Общий поток : 13,1 Мбит/сек
Название фильма : The Bad Lieutenant: Port of Call New Orleans
Дата кодирования : UTC 2018-01-10 22:08:13
Программа кодирования : mkvmerge v7.9.0 ('Birds') 64bit
Библиотека кодирования : libebml v1.3.1 + libmatroska v1.4.2
Видео
Идентификатор : 1
Формат : AVC
Формат/Информация : Advanced Video Codec
Профиль формата : [email protected]
Параметр CABAC формата : Да
Параметр RefFrames формата : 4 кадра
Идентификатор кодека : V_MPEG4/ISO/AVC
Продолжительность : 2 ч. 2 м.
Битрейт : 11,0 Мбит/сек
Ширина : 1920 пикселей
Высота : 1036 пикселей
Соотношение сторон : 1,85:1
Режим частоты кадров : Постоянный
Частота кадров : 23,976 кадра/сек
Цветовое пространство : YUV
Субдискретизация насыщенности : 4:2:0
Битовая глубина : 8 бит
Тип развёртки : Прогрессивная
Бит/(Пиксели*Кадры) : 0.231
Размер потока : 9,40 Гбайт (84%)
Библиотека кодирования : x264 core 88 r1471 1144615
Настройки программы : cabac=1 / ref=4 / deblock=1:-3:-3 / analyse=0x3:0x113 / me=umh / subme=10 / psy=1 / psy_rd=1.00:0.00 / mixed_ref=1 / me_range=32 / chroma_me=1 / trellis=2 / 8x8dct=1 / cqm=0 / deadzone=21,11 / fast_pskip=0 / chroma_qp_offset=-2 / threads=6 / sliced_threads=0 / nr=0 / decimate=0 / mbaff=0 / constrained_intra=0 / bframes=10 / b_pyramid=2 / b_adapt=2 / b_bias=0 / direct=3 / wpredb=1 / wpredp=2 / keyint=250 / keyint_min=25 / scenecut=40 / intra_refresh=0 / rc=2pass / mbtree=0 / bitrate=11021 / ratetol=1.0 / qcomp=0.60 / qpmin=10 / qpmax=51 / qpstep=4 / cplxblur=20.0 / qblur=0.5 / ip_ratio=1.40 / pb_ratio=1.30 / aq=1:0.60
Язык : English
Default : Да
Forced : Нет
Аудио #1
Идентификатор : 2
Формат : AC-3
Формат/Информация : Audio Coding 3
Параметр Endianness формата : Big
Идентификатор кодека : A_AC3
Продолжительность : 2 ч. 2 м.
Вид битрейта : Постоянный
Битрейт : 640 Кбит/сек
Каналы : 6 каналов
Расположение каналов : Front: L C R, Side: L R, LFE
Частота : 48,0 КГц
Частота кадров : 31,250 кадров/сек (1536 SPF)
Битовая глубина : 16 бит
Метод сжатия : С потерями
Размер потока : 559 Мбайт (5%)
Заголовок : Многоголосый закадровый
Язык : Russian
ServiceKind/String : Complete Main
Default : Да
Forced : Нет
Аудио #2
Идентификатор : 3
Формат : AC-3
Формат/Информация : Audio Coding 3
Параметр Endianness формата : Big
Идентификатор кодека : A_AC3
Продолжительность : 2 ч. 2 м.
Вид битрейта : Постоянный
Битрейт : 640 Кбит/сек
Каналы : 6 каналов
Расположение каналов : Front: L C R, Side: L R, LFE
Частота : 48,0 КГц
Частота кадров : 31,250 кадров/сек (1536 SPF)
Битовая глубина : 16 бит
Метод сжатия : С потерями
Размер потока : 559 Мбайт (5%)
Заголовок : Авторский - Ю.Немахов
Язык : Russian
ServiceKind/String : Complete Main
Default : Нет
Forced : Нет
Аудио #3
Идентификатор : 4
Формат : AC-3
Формат/Информация : Audio Coding 3
Параметр Endianness формата : Big
Идентификатор кодека : A_AC3
Продолжительность : 2 ч. 2 м.
Вид битрейта : Постоянный
Битрейт : 192 Кбит/сек
Каналы : 2 канала
Расположение каналов : Front: L R
Частота : 48,0 КГц
Частота кадров : 31,250 кадров/сек (1536 SPF)
Битовая глубина : 16 бит
Метод сжатия : С потерями
Размер потока : 168 Мбайт (1%)
Заголовок : Двухголосый закадровый - 1+1
Язык : Ukrainian
ServiceKind/String : Complete Main
Default : Нет
Forced : Нет
Аудио #4
Идентификатор : 5
Формат : AC-3
Формат/Информация : Audio Coding 3
Параметр Endianness формата : Big
Идентификатор кодека : A_AC3
Продолжительность : 2 ч. 2 м.
Вид битрейта : Постоянный
Битрейт : 640 Кбит/сек
Каналы : 6 каналов
Расположение каналов : Front: L C R, Side: L R, LFE
Частота : 48,0 КГц
Частота кадров : 31,250 кадров/сек (1536 SPF)
Битовая глубина : 16 бит
Метод сжатия : С потерями
Размер потока : 559 Мбайт (5%)
Заголовок : Оригинал
Язык : English
ServiceKind/String : Complete Main
Default : Нет
Forced : Нет
Текст #1
Идентификатор : 6
Формат : UTF-8
Идентификатор кодека : S_TEXT/UTF8
Идентификатор кодека/Информация : UTF-8 Plain Text
Продолжительность : 1 ч. 57 м.
Битрейт : 103 бит/сек
ElementCount : 1402
Размер потока : 89,2 Кбайт (0%)
Язык : Russian
Default : Нет
Forced : Нет
Текст #2
Идентификатор : 7
Формат : UTF-8
Идентификатор кодека : S_TEXT/UTF8
Идентификатор кодека/Информация : UTF-8 Plain Text
Продолжительность : 1 ч. 55 м.
Битрейт : 64 бит/сек
ElementCount : 1618
Размер потока : 54,6 Кбайт (0%)
Язык : English
Default : Нет
Forced : Нет
Меню
00:00:00.000 : en:00:00:00.000
00:06:09.035 : en:00:06:09.035
00:17:00.186 : en:00:17:00.186
00:26:41.767 : en:00:26:41.767
00:36:14.589 : en:00:36:14.589
00:48:36.622 : en:00:48:36.622
00:59:06.168 : en:00:59:06.168
01:10:43.364 : en:01:10:43.364
01:22:19.518 : en:01:22:19.518
01:32:07.564 : en:01:32:07.564
01:44:29.388 : en:01:44:29.388
01:50:25.202 : en:01:50:25.202
01:56:47.375 : en:01:56:47.375
-Качество: BDRip 1080p
Кодек: x.264
Видео: 1920x1036 (1.85:1), 23.976 fps, AVC, ~11.0 Mbps, 0.231 bits/pixel
Аудио#1 Russian, 48.0 KHz, AC3, 6 ch, 640 Kbps - Многоголосый закадровый
Аудио#2 Russian, 48.0 KHz, AC3, 6 ch, 640 Kbps - Авторский - Ю.Немахов
Аудио#3 Ukrainian, 48.0 KHz, AC3, 2 ch, 192 Kbps - Двухголосый закадровый - 1+1
Аудио#4 English, 48.0 KHz, AC3, 6 ch, 640 Kbps - Оригинал
Субтитры: Русские, английские

Скриншоты


If you like the topic, please click share to help develop our site.

To download the file disable ad blocking, and reload the page.

disable adblock How to disable ad blocking?

Download by magnet link 11.21 GB Download Torrent

Login using:

Similar topics

Креола / Kreola (1993) DVDRip | L1
 1.4 GB   0 | 0   09-Oct-16 20:33   57
Большая игра / Molly's Game (2017) BDRip 1080p от & | iTunes
 7.49 GB   22 | 0   05-Apr-18 22:30   17
Пансионат Борегар / Beauregard (2009) HDTV 1080 | P2
 9.04 GB   0 | 1   17-Jan-17 20:19   16
Призрак / Malombra (1984) DVDRip | A
 1.41 GB   4 | 0   17-Jan-17 20:50   14


   
Current time is: 23-May 23:30 :: All times are UTC + 3