Brunori Sas / A Casa Tutto Bene
Жанр: Pop, Folk, World, & Country
Носитель: CD
Страна-производитель диска (релиза): Италия
Год издания: 2017
Издатель (лейбл): Picicca Dischi
Номер по каталогу: PIC025
Страна исполнителя (группы): Италия
Аудиокодек: FLAC (*.flac)
Тип рипа: tracks+.cue
Битрейт аудио: lossless
Продолжительность: 00:47:35
Источник (релизер): cityofechoes
Наличие сканов в содержимом раздачи: нет
Треклист:
1 La verità 5:02
2 L'uomo nero 4:28
3 Canzone contro la paura 3:44
4 Lamezia Milano 3:53
5 Colpo di pistola 5:04
6 La vita liquida 3:30
7 Diego e io 4:17
8 Sabato bestiale 3:46
9 Don Abbondio 3:57
10 Il costume da torero 2:27
11 Secondo me 4:44
12 La vita pensata 2:42

Лог создания рипа

Exact Audio Copy V1.3 from 2. September 2016
EAC extraction logfile from 5. November 2017, 22:21
Brunori Sas / A casa tutto bene
Used drive : HL-DT-STDVDRAM GH24NSB0 Adapter: 1 ID: 0
Read mode : SecureUtilize accurate stream : YesDefeat audio cache : YesMake use of C2 pointers : No
Read offset correction : 6Overread into Lead-In and Lead-Out : NoFill up missing offset samples with silence : YesDelete leading and trailing silent blocks : NoNull samples used in CRC calculations : YesUsed interface : Native Win32 interface for Win NT & 2000Gap handling : Appended to previous track
Used output format : User Defined EncoderSelected bitrate : 768 kBit/sQuality : HighAdd ID3 tag : NoCommand line compressor : C:\Program Files (x86)\Exact Audio Copy\FLAC\FLAC.EXEAdditional command line options : -8 -V -T "ARTIST=%artist%" -T "TITLE=%title%" -T "ALBUM=%albumtitle%" -T "DATE=%year%" -T "TRACKNUMBER=%tracknr1%" -T "GENRE=%genre%" -T "PERFORMER=%albuminterpret%" -T "COMPOSER=%composer%" %haslyrics%--tag-from-file=LYRICS="%lyricsfile%"%haslyrics% -T "ALBUMARTIST=%albumartist%" -T "DISCNUMBER=%cdnumber%" -T "TOTALDISCS=%totalcds%" -T "TOTALTRACKS=%numtracks%" -T "COMMENT=%comment%" %source% -o %dest%
TOC of the extracted CD
Track | Start | Length | Start sector | End sector --------------------------------------------------------- 1 | 0:00.00 | 5:02.37 | 0 | 22686 2 | 5:02.37 | 4:28.28 | 22687 | 42814 3 | 9:30.65 | 3:43.69 | 42815 | 59608 4 | 13:14.59 | 3:53.35 | 59609 | 77118 5 | 17:08.19 | 5:04.23 | 77119 | 99941 6 | 22:12.42 | 3:29.43 | 99942 | 115659 7 | 25:42.10 | 4:16.39 | 115660 | 134898 8 | 29:58.49 | 3:46.07 | 134899 | 151855 9 | 33:44.56 | 3:57.27 | 151856 | 169657 10 | 37:42.08 | 2:27.11 | 169658 | 180693 11 | 40:09.19 | 4:44.01 | 180694 | 201994 12 | 44:53.20 | 2:41.69 | 201995 | 214138
Track 1
Filename E:\Documenti\brunori sas - 2017 - a casa tutto bene [FLAC]\01 La verità.wav
Pre-gap length 0:00:02.00
Peak level 99.8 % Extraction speed 1.0 X Track quality 100.0 % Test CRC 3BB62942 Copy CRC 3BB62942 Accurately ripped (confidence 3) [AFFAA5B3] (AR v2) Copy OK
Track 2
Filename E:\Documenti\brunori sas - 2017 - a casa tutto bene [FLAC]\02 L'uomo nero.wav
Pre-gap length 0:00:00.21
Peak level 99.8 % Extraction speed 1.2 X Track quality 100.0 % Test CRC 859C3134 Copy CRC 859C3134 Accurately ripped (confidence 3) [B283E873] (AR v2) Copy OK
Track 3
Filename E:\Documenti\brunori sas - 2017 - a casa tutto bene [FLAC]\03 Canzone contro la paura.wav
Pre-gap length 0:00:00.74
Peak level 99.8 % Extraction speed 1.2 X Track quality 100.0 % Test CRC 868B0E15 Copy CRC 868B0E15 Accurately ripped (confidence 3) [E3EBFD26] (AR v2) Copy OK
Track 4
Filename E:\Documenti\brunori sas - 2017 - a casa tutto bene [FLAC]\04 Lamezia Milano.wav
Pre-gap length 0:00:01.18
Peak level 99.8 % Extraction speed 1.3 X Track quality 100.0 % Test CRC B34811CF Copy CRC B34811CF Accurately ripped (confidence 3) [0A46D5CC] (AR v2) Copy OK
Track 5
Filename E:\Documenti\brunori sas - 2017 - a casa tutto bene [FLAC]\05 Colpo di pistola.wav
Pre-gap length 0:00:01.29
Peak level 99.8 % Extraction speed 1.5 X Track quality 100.0 % Test CRC E44755E6 Copy CRC E44755E6 Accurately ripped (confidence 3) [3BC2580D] (AR v2) Copy OK
Track 6
Filename E:\Documenti\brunori sas - 2017 - a casa tutto bene [FLAC]\06 La vita liquida.wav
Pre-gap length 0:00:02.37
Peak level 99.8 % Extraction speed 1.5 X Track quality 100.0 % Test CRC FEC8CBE6 Copy CRC FEC8CBE6 Accurately ripped (confidence 3) [BA967B83] (AR v2) Copy OK
Track 7
Filename E:\Documenti\brunori sas - 2017 - a casa tutto bene [FLAC]\07 Diego e io.wav
Pre-gap length 0:00:03.29
Peak level 99.8 % Extraction speed 1.6 X Track quality 100.0 % Test CRC 771DC569 Copy CRC 771DC569 Accurately ripped (confidence 3) [279416AD] (AR v2) Copy OK
Track 8
Filename E:\Documenti\brunori sas - 2017 - a casa tutto bene [FLAC]\08 Sabato bestiale.wav
Pre-gap length 0:00:01.12
Peak level 99.8 % Extraction speed 1.5 X Track quality 99.9 % Test CRC 70F0D61C Copy CRC 70F0D61C Accurately ripped (confidence 3) [13BF1F37] (AR v2) Copy OK
Track 9
Filename E:\Documenti\brunori sas - 2017 - a casa tutto bene [FLAC]\09 Don Abbondio.wav
Pre-gap length 0:00:03.41
Peak level 99.8 % Extraction speed 1.6 X Track quality 99.9 % Test CRC 1086AEAF Copy CRC 1086AEAF Accurately ripped (confidence 3) [C3CFB96B] (AR v2) Copy OK
Track 10
Filename E:\Documenti\brunori sas - 2017 - a casa tutto bene [FLAC]\10 Il costume da torero.wav
Pre-gap length 0:00:02.90
Peak level 99.8 % Extraction speed 1.7 X Track quality 100.0 % Test CRC 9AB2A41A Copy CRC 9AB2A41A Accurately ripped (confidence 3) [440823C7] (AR v2) Copy OK
Track 11
Filename E:\Documenti\brunori sas - 2017 - a casa tutto bene [FLAC]\11 Secondo me.wav
Pre-gap length 0:00:05.06
Peak level 99.8 % Extraction speed 1.9 X Track quality 100.0 % Test CRC 85C0E4D7 Copy CRC 85C0E4D7 Accurately ripped (confidence 3) [D7756B24] (AR v2) Copy OK
Track 12
Filename E:\Documenti\brunori sas - 2017 - a casa tutto bene [FLAC]\12 La vita pensata.wav
Pre-gap length 0:00:01.72
Peak level 99.8 % Extraction speed 1.8 X Track quality 100.0 % Test CRC E4E5C2EC Copy CRC E4E5C2EC Accurately ripped (confidence 3) [B414E4CC] (AR v2) Copy OK
All tracks accurately ripped
No errors occurred
End of status report
---- CUETools DB Plugin V2.1.6
[CTDB TOCID: eXKy_d2Q_km_7J0.5ReQh65io70-] foundSubmit result: eXKy_d2Q_km_7J0.5ReQh65io70- has been confirmedTrack | CTDB Status 1 | (24/24) Accurately ripped 2 | (24/24) Accurately ripped 3 | (24/24) Accurately ripped 4 | (24/24) Accurately ripped 5 | (24/24) Accurately ripped 6 | (24/24) Accurately ripped 7 | (24/24) Accurately ripped 8 | (24/24) Accurately ripped 9 | (24/24) Accurately ripped 10 | (24/24) Accurately ripped 11 | (24/24) Accurately ripped 12 | (24/24) Accurately ripped
==== Log checksum A6DCC617E839712D8FCABEEEE31F17ED2CC928631F0B5BFA62225234ED60FFB8 ====

Содержание индексной карты (.correct.cue)

REM GENRE PopREM DATE 2017REM DISCID 890B270CREM COMMENT "ExactAudioCopy v1.3"CATALOG 8051411742418PERFORMER "Brunori Sas"TITLE "A casa tutto bene"REM COMPOSER ""FILE "01 La verità.wav" WAVE  TRACK 01 AUDIO    TITLE "La verità"    PERFORMER "Brunori Sas"    REM COMPOSER ""    ISRC ITY481725001    INDEX 01 00:00:00  TRACK 02 AUDIO    TITLE "L'uomo nero"    PERFORMER "Brunori Sas"    REM COMPOSER ""    ISRC ITY481725002    INDEX 00 05:02:21FILE "02 L'uomo nero.wav" WAVE    INDEX 01 00:00:00  TRACK 03 AUDIO    TITLE "Canzone contro la paura"    PERFORMER "Brunori Sas"    REM COMPOSER ""    ISRC ITY481725003    INDEX 00 04:27:47FILE "03 Canzone contro la paura.wav" WAVE    INDEX 01 00:00:00  TRACK 04 AUDIO    TITLE "Lamezia Milano"    PERFORMER "Brunori Sas"    REM COMPOSER ""    ISRC ITY481725004    INDEX 00 03:42:55FILE "04 Lamezia Milano.wav" WAVE    INDEX 01 00:00:00  TRACK 05 AUDIO    TITLE "Colpo di pistola"    PERFORMER "Brunori Sas"    REM COMPOSER ""    ISRC ITY481725005    INDEX 00 03:52:13FILE "05 Colpo di pistola.wav" WAVE    INDEX 01 00:00:00  TRACK 06 AUDIO    TITLE "La vita liquida"    PERFORMER "Brunori Sas"    REM COMPOSER ""    ISRC ITY481725006    INDEX 00 05:01:70FILE "06 La vita liquida.wav" WAVE    INDEX 01 00:00:00  TRACK 07 AUDIO    TITLE "Diego e io"    PERFORMER "Brunori Sas"    REM COMPOSER ""    ISRC ITY481725007    INDEX 00 03:26:21FILE "07 Diego e io.wav" WAVE    INDEX 01 00:00:00  TRACK 08 AUDIO    TITLE "Sabato bestiale"    PERFORMER "Brunori Sas"    REM COMPOSER ""    ISRC ITY481725008    INDEX 00 04:15:30FILE "08 Sabato bestiale.wav" WAVE    INDEX 01 00:00:00  TRACK 09 AUDIO    TITLE "Don Abbondio"    PERFORMER "Brunori Sas"    REM COMPOSER ""    ISRC ITY481725009    INDEX 00 03:42:51FILE "09 Don Abbondio.wav" WAVE    INDEX 01 00:00:00  TRACK 10 AUDIO    TITLE "Il costume da torero"    PERFORMER "Brunori Sas"    REM COMPOSER ""    ISRC ITY481725010    INDEX 00 03:54:34FILE "10 Il costume da torero.wav" WAVE    INDEX 01 00:00:00  TRACK 11 AUDIO    TITLE "Secondo me"    PERFORMER "Brunori Sas"    REM COMPOSER ""    ISRC ITY481725011    INDEX 00 02:22:06FILE "11 Secondo me.wav" WAVE    INDEX 01 00:00:00  TRACK 12 AUDIO    TITLE "La vita pensata"    PERFORMER "Brunori Sas"    REM COMPOSER ""    ISRC ITY481725012    INDEX 00 04:42:22FILE "12 La vita pensata.wav" WAVE    INDEX 01 00:00:00

To download the file disable ad blocking, and reload the page.

disable adblock How to disable ad blocking?

Download by magnet link 308 MB Download Torrent

Login using:

Similar topics



   
Current time is: 23-Oct 08:25 :: All times are UTC ± 0