Тайна Коко / Coco
Страна: США
Производство: Walt Disney Pictures, Pixar Animation Studios
Год выпуска: 2017
Жанр: мультфильм, мюзикл, фэнтези, комедия, детектив, приключения, семейный
Продолжительность: 01:43:34
Режиссеры: Ли Анкрич, Эдриан Молина
Авторы сценария: Мэттью Олдрич, Эдриан Молина, Ли Анкрич
В ролях: Энтони Гонсалес, Гаэль Гарсиа Берналь, Бенджамин Брэтт, Аланна Юбак, Рене Виктор, Хайме Камиль, Альфонсо Арау, Херберт Сигенса
Описание: 12-летний Мигель живёт в мексиканской деревушке в семье сапожников и тайно мечтает стать музыкантом. Тайно — потому что в его семейном клане музыка считается проклятием. Когда-то его прапрадед оставил свою жену, прапрабабку Мигеля, ради мечты, которая теперь не даёт спокойно жить Мигелю. С тех пор музыкальная тема в семье стала табу. Мигель обнаруживает, что между ним и его любимым певцом Эрнесто де ла Крусом, ныне покойным, существует некая — пока неназванная — связь. Паренёк отправляется к своему кумиру в Страну Мёртвых, где встречает души своих предков. Мигель знакомится там с духом-трикстером по имени Гектор (в облике скелета), который становится его проводником. Вдвоём они отправляются на поиски де ла Круса...

Перевод: отсутствует | субтитры
Субтитры: отдельными файлами | от студии FOCS - русские, английские-Качество: DVDScr
Формат: AVI
Видео кодек: XviD
Аудио кодек: МР3
Видео: 720x304 (2.35:1), 30.000 fps, XviD ~1 993 kbps avg, 0.303 bit/pixel
Аудио: 48.0 kHz, MPEG Layer 3, 2 ch, ~128 kbps avg | ENG / английский
Формат субтитров: *SRT
Дата премьеры (мир): 20 октября 2017
Дата премьеры (РФ): 23 ноября 2017, «WDSSPR»
релиз на Blu-ray: 20 марта 2018, «Уолт Дисней Компани СНГ»-
Приз Золотой глобус, 2018 год
» Лучший анимационный фильм

Media Info

General
Полное имя : Coco.2017.DVDScreener.rus.sub.FOCS-PB.avi
Формат : AVI
Формат/Информация : Audio Video Interleave
Размер файла : 1,54 Гбайт
Продолжительность : 1 ч. 43 м.
Общий поток : 2132 Кбит/сек
Программа кодирования : VirtualDubMod 1.5.10.3 | www.virtualdub-fr.org || (build 2550/release)
Библиотека кодирования : VirtualDubMod build 2550/release
Видео
Идентификатор : 0
Формат : MPEG-4 Visual
Профиль формата : Advanced Simple@L5
Параметр BVOP формата : 2
Параметр QPel формата : Да
Параметр GMC формата : Без точки перехода
Параметр матрицы формата : Default (H.263)
Режим смешивания : Сжатый битовый поток
Идентификатор кодека : XVID
Идентификатор кодека/Подсказка : XviD
Продолжительность : 1 ч. 43 м.
Битрейт : 1993 Кбит/сек
Ширина : 720 пикселей
Высота : 304 пикселя
Соотношение сторон : 2,35:1
Частота кадров : 30,000 кадров/сек
Цветовое пространство : YUV
Субдискретизация насыщенности : 4:2:0
Битовая глубина : 8 бит
Тип развёртки : Прогрессивная
Метод сжатия : С потерями
Бит/(Пиксели*Кадры) : 0.303
Размер потока : 1,44 Гбайт (93%)
Библиотека кодирования : XviD 1.2.1 (UTC 2008-12-04)
Аудио
Идентификатор : 1
Формат : MPEG Audio
Версия формата : Version 1
Профиль формата : Layer 3
Идентификатор кодека : 55
Идентификатор кодека/Подсказка : MP3
Продолжительность : 1 ч. 43 м.
Вид битрейта : Постоянный
Битрейт : 128 Кбит/сек
Каналы : 2 канала
Частота : 48,0 КГц
Метод сжатия : С потерями
Размер потока : 94,8 Мбайт (6%)
Выравнивание : Соединение по промежуткам
Продолжительность промежутка : 33 мс. (1,00 видеокадр)
Время предзагрузки промежутка : 504 мс.
Библиотека кодирования : LAME3.99r
Настройки программы : -m s -V 4 -q 2 -lowpass 17 -b 128

Скриншоты

To download the file disable ad blocking, and reload the page.

disable adblock How to disable ad blocking?

Download by magnet link 1.54 GB Download Torrent

Login using:

Similar topics

Тайна Коко / Coco (2017) BDRip от | D
 2.18 GB   148 | 4   26-Apr-18 13:30   2
Тайна Коко / Coco (2017) UHD BDRemux [H.265/2160p] [4K, HDR, 10-bit]
 39.78 GB   12 | 7   06-Apr-18 20:10   2


   
Current time is: 15-Oct 21:36 :: All times are UTC ± 0