Survivor - Eye Of The Tiger- Жанр: Hard Rock
Страна: США
Год выхода альбома: 1982
Год выпуска диска: 1987
Производитель диска: Германия
Аудио кодек: FLAC
Тип рипа: image+.cue
Битрейт аудио: lossless
Продолжительность: 38:11
Рип: собственный
Наличие сканов: да
Треклист:
01. Eye Of The Tiger (04:07)
02. Feels Like Love (04:09)
03. Hesitation Dance (03:53)
04. The One That Really Matters (03:33)
05. I'm Not That Man Anymore (04:49)
06. Children Of The Night (04:45)
07. Ever Since The World Began (03:47)
08. American Heartbeat (04:14)
09. Silver Girl (04:54)
Доп. информация:
Лейбл: SCOTTI BROTHERS/INTERCORD
Каталожный номер: INT 847.319
Матрица: SONOPRESS B-9071 / 847319 B
Состав:
Dave Bickler – lead vocals
Frankie Sullivan – lead & rhythm guitars, acoustic 12-string guitar, vocals
Jim Peterik – grand piano, B3, electric guitar, acoustic 12-string guitar, vocals
Stephan Ellis – bass
Marc Droubay – drums

log

Exact Audio Copy V1.1 from 23. June 2015
EAC extraction logfile from 28. November 2017, 11:24
Survivor / Eye Of The Tiger [INT 847.319]
Used drive : TSSTcorpDVD+-RW SU-208GB Adapter: 1 ID: 0
Read mode : SecureUtilize accurate stream : YesDefeat audio cache : YesMake use of C2 pointers : No
Read offset correction : 6Overread into Lead-In and Lead-Out : NoFill up missing offset samples with silence : YesDelete leading and trailing silent blocks : NoNull samples used in CRC calculations : YesUsed interface : Native Win32 interface for Win NT & 2000
Used output format : Internal WAV RoutinesSample format : 44.100 Hz; 16 Bit; Stereo
TOC of the extracted CD
Track | Start | Length | Start sector | End sector --------------------------------------------------------- 1 | 0:00.00 | 4:06.42 | 0 | 18491 2 | 4:06.42 | 4:09.30 | 18492 | 37196 3 | 8:15.72 | 3:53.13 | 37197 | 54684 4 | 12:09.10 | 3:32.42 | 54685 | 70626 5 | 15:41.52 | 4:49.23 | 70627 | 92324 6 | 20:31.00 | 4:45.35 | 92325 | 113734 7 | 25:16.35 | 3:46.40 | 113735 | 130724 8 | 29:03.00 | 4:13.72 | 130725 | 149771 9 | 33:16.72 | 4:53.53 | 149772 | 171799
Range status and errors
Selected range
Filename D:\Survivor - Eye Of The Tiger [INT 847.319].wav
Peak level 99.2 % Extraction speed 3.8 X Range quality 100.0 % Test CRC 030C8B2F Copy CRC 030C8B2F Copy OK
No errors occurred
AccurateRip summary
Track 1 accurately ripped (confidence 4) [3C8676AB] (AR v2)Track 2 accurately ripped (confidence 4) [42DB99C6] (AR v2)Track 3 accurately ripped (confidence 4) [80E21727] (AR v2)Track 4 accurately ripped (confidence 4) [32747803] (AR v2)Track 5 accurately ripped (confidence 4) [66309560] (AR v2)Track 6 accurately ripped (confidence 4) [7CF034B4] (AR v2)Track 7 accurately ripped (confidence 4) [8375B364] (AR v2)Track 8 accurately ripped (confidence 4) [1B31C1EC] (AR v2)Track 9 accurately ripped (confidence 4) [8625D7F7] (AR v2)
All tracks accurately ripped
End of status report
---- CUETools DB Plugin V2.1.6
[CTDB TOCID: jtnkS7r5mHUCJmfWf0yzG2mK.rs-] foundSubmit result: jtnkS7r5mHUCJmfWf0yzG2mK.rs- has been confirmedTrack | CTDB Status 1 | (10/10) Accurately ripped 2 | ( 9/10) Accurately ripped 3 | (10/10) Accurately ripped 4 | (10/10) Accurately ripped 5 | (10/10) Accurately ripped 6 | (10/10) Accurately ripped 7 | (10/10) Accurately ripped 8 | (10/10) Accurately ripped 9 | (10/10) Accurately ripped
==== Log checksum 0E43FF5015731539EC2C4C7552DA981D17B027AE077CA919AE201505B50D79CB ====

cue

REM GENRE RockREM DATE 1982REM DISCID 8308F209REM COMMENT "ExactAudioCopy v1.1"PERFORMER "Survivor"TITLE "Eye Of The Tiger [INT 847.319]"FILE "Survivor - Eye Of The Tiger [INT 847.319].flac" WAVE  TRACK 01 AUDIO    TITLE "Eye Of The Tiger"    PERFORMER "Survivor"    INDEX 01 00:00:00  TRACK 02 AUDIO    TITLE "Feels Like Love"    PERFORMER "Survivor"    INDEX 00 04:05:25    INDEX 01 04:06:42  TRACK 03 AUDIO    TITLE "Hesitation Dance"    PERFORMER "Survivor"    INDEX 00 08:15:25    INDEX 01 08:15:72  TRACK 04 AUDIO    TITLE "The One That Really Matters"    PERFORMER "Survivor"    INDEX 00 12:08:12    INDEX 01 12:09:10  TRACK 05 AUDIO    TITLE "I'm Not That Man Anymore"    PERFORMER "Survivor"    INDEX 00 15:39:71    INDEX 01 15:41:52  TRACK 06 AUDIO    TITLE "Children Of The Night"    PERFORMER "Survivor"    INDEX 00 20:30:12    INDEX 01 20:31:00  TRACK 07 AUDIO    TITLE "Ever Since The World Began"    PERFORMER "Survivor"    INDEX 01 25:16:35  TRACK 08 AUDIO    TITLE "American Heartbeat"    PERFORMER "Survivor"    INDEX 00 28:59:25    INDEX 01 29:03:00  TRACK 09 AUDIO    TITLE "Silver Girl"    PERFORMER "Survivor"    INDEX 00 33:14:25    INDEX 01 33:16:72

To download the file disable ad blocking, and reload the page.

disable adblock How to disable ad blocking?

Download by magnet link 270 MB Download Torrent

Login using:

Similar topics

(Hard Rock) Vince Voltage - Hard Rock Survivor - 2017, MP3, 320 kbps
 88 MB   0 | 0   07-May-17 23:16   0


   
Current time is: 23-Oct 07:14 :: All times are UTC ± 0