Noiseworks / Touch
Жанр: Rock
Носитель: CD
Страна-производитель диска (релиза): Europe/Austria
Год издания: 1988
Издатель (лейбл): Epic
Номер по каталогу: EPC 463115 2
Страна исполнителя (группы): Australia
Аудиокодек: FLAC (*.flac)
Тип рипа: tracks+.cue
Битрейт аудио: lossless
Продолжительность: 00:48:29
Источник (релизер): Own CD & Rip
Наличие сканов в содержимом раздачи: нет

Треклист:
01. Simple Man
02.
03.
04. Chained
05. Home
06. I Can't Win
07. Letter
08. Tell It Like It Is
09. Keep Me Running
10. Live And Die
11. In My Youth

Лог создания рипа

Exact Audio Copy V1.3 from 2. September 2016
EAC extraction logfile from 16. December 2017, 20:30
Noiseworks / Touch
Used drive : HL-DT-STDVDRAM GH22NS40 Adapter: 1 ID: 0
Read mode : SecureUtilize accurate stream : YesDefeat audio cache : YesMake use of C2 pointers : No
Read offset correction : 667Overread into Lead-In and Lead-Out : NoFill up missing offset samples with silence : YesDelete leading and trailing silent blocks : NoNull samples used in CRC calculations : YesUsed interface : Native Win32 interface for Win NT & 2000Gap handling : Appended to previous track
Used output format : User Defined EncoderSelected bitrate : 896 kBit/sQuality : HighAdd ID3 tag : NoCommand line compressor : C:\Program Files\Exact Audio Copy\Flac\flac.exeAdditional command line options : -8 -V -T "ARTIST=%artist%" -T "TITLE=%title%" -T "ALBUM=%albumtitle%" -T "DATE=%year%" -T "TRACKNUMBER=%tracknr%" -T "TOTALTRACKS=%numtracks%" -T "GENRE=%genre%" -T "COMMENT=EAC Secure Mode, Test & Copy, AccurateRip, FLAC -8" %source%
TOC of the extracted CD
Track | Start | Length | Start sector | End sector --------------------------------------------------------- 1 | 0:00.00 | 3:47.72 | 0 | 17096 2 | 3:47.72 | 5:04.30 | 17097 | 39926 3 | 8:52.27 | 4:15.63 | 39927 | 59114 4 | 13:08.15 | 4:24.57 | 59115 | 78971 5 | 17:32.72 | 5:13.33 | 78972 | 102479 6 | 22:46.30 | 2:55.30 | 102480 | 115634 7 | 25:41.60 | 5:31.72 | 115635 | 140531 8 | 31:13.57 | 4:21.70 | 140532 | 160176 9 | 35:35.52 | 4:50.33 | 160177 | 181959 10 | 40:26.10 | 4:35.12 | 181960 | 202596 11 | 45:01.22 | 3:35.68 | 202597 | 218789
Track 1
Filename I:\Rips\Noiseworks - Touch (1988) [FLAC]\01 - Simple Man.wav
Pre-gap length 0:00:02.00
Peak level 95.7 % Extraction speed 1.0 X Track quality 100.0 % Test CRC 83D492E9 Copy CRC 83D492E9 Accurately ripped (confidence 17) [AB3B5134] (AR v2) Copy OK
Track 2
Filename I:\Rips\Noiseworks - Touch (1988) [FLAC]\02 - Touch.wav
Pre-gap length 0:00:00.15
Peak level 95.7 % Extraction speed 1.2 X Track quality 100.0 % Test CRC 62E0C5B4 Copy CRC 62E0C5B4 Accurately ripped (confidence 17) [C90B7CC7] (AR v2) Copy OK
Track 3
Filename I:\Rips\Noiseworks - Touch (1988) [FLAC]\03 - Voice Of Reason.wav
Pre-gap length 0:00:00.42
Peak level 95.7 % Extraction speed 1.2 X Track quality 100.0 % Test CRC F1C1ACF1 Copy CRC F1C1ACF1 Accurately ripped (confidence 17) [32954EF0] (AR v2) Copy OK
Track 4
Filename I:\Rips\Noiseworks - Touch (1988) [FLAC]\04 - Chained.wav
Pre-gap length 0:00:00.30
Peak level 95.7 % Extraction speed 1.4 X Track quality 100.0 % Test CRC 14904944 Copy CRC 14904944 Accurately ripped (confidence 17) [F95D857F] (AR v2) Copy OK
Track 5
Filename I:\Rips\Noiseworks - Touch (1988) [FLAC]\05 - Home.wav
Pre-gap length 0:00:01.70
Peak level 95.6 % Extraction speed 1.5 X Track quality 100.0 % Test CRC ED06811C Copy CRC ED06811C Accurately ripped (confidence 17) [5A3D1CD5] (AR v2) Copy OK
Track 6
Filename I:\Rips\Noiseworks - Touch (1988) [FLAC]\06 - I Can't Win.wav
Peak level 95.7 % Extraction speed 1.5 X Track quality 100.0 % Test CRC 6E9B7B0F Copy CRC 6E9B7B0F Accurately ripped (confidence 17) [4F6933FC] (AR v2) Copy OK
Track 7
Filename I:\Rips\Noiseworks - Touch (1988) [FLAC]\07 - Letter.wav
Pre-gap length 0:00:01.45
Peak level 95.7 % Extraction speed 1.7 X Track quality 100.0 % Test CRC A4824956 Copy CRC A4824956 Accurately ripped (confidence 16) [46B6F80F] (AR v2) Copy OK
Track 8
Filename I:\Rips\Noiseworks - Touch (1988) [FLAC]\08 - Tell It Like It Is.wav
Pre-gap length 0:00:01.17
Peak level 87.3 % Extraction speed 1.5 X Track quality 99.9 % Test CRC D3EA6009 Copy CRC D3EA6009 Accurately ripped (confidence 17) [F89AFAF4] (AR v2) Copy OK
Track 9
Filename I:\Rips\Noiseworks - Touch (1988) [FLAC]\09 - Keep Me Running.wav
Pre-gap length 0:00:00.50
Peak level 95.7 % Extraction speed 1.4 X Track quality 99.9 % Test CRC FDDE8F18 Copy CRC FDDE8F18 Accurately ripped (confidence 17) [0DF84924] (AR v2) Copy OK
Track 10
Filename I:\Rips\Noiseworks - Touch (1988) [FLAC]\10 - Live And Die.wav
Pre-gap length 0:00:00.70
Peak level 84.7 % Extraction speed 1.9 X Track quality 100.0 % Test CRC BC852DE2 Copy CRC BC852DE2 Accurately ripped (confidence 17) [D2C2A27F] (AR v2) Copy OK
Track 11
Filename I:\Rips\Noiseworks - Touch (1988) [FLAC]\11 - In My Youth.wav
Pre-gap length 0:00:00.15
Peak level 87.3 % Extraction speed 1.9 X Track quality 100.0 % Test CRC 4938F41A Copy CRC 4938F41A Accurately ripped (confidence 17) [22BC6495] (AR v2) Copy OK
All tracks accurately ripped
No errors occurred
End of status report
---- CUETools DB Plugin V2.1.6
[CTDB TOCID: K6Kh13AgNLe3Wh0ssk9wcoreuq0-] foundSubmit result: already submittedTrack | CTDB Status 1 | (44/44) Accurately ripped 2 | (44/44) Accurately ripped 3 | (44/44) Accurately ripped 4 | (44/44) Accurately ripped 5 | (44/44) Accurately ripped 6 | (44/44) Accurately ripped 7 | (44/44) Accurately ripped 8 | (44/44) Accurately ripped 9 | (44/44) Accurately ripped 10 | (44/44) Accurately ripped 11 | (44/44) Accurately ripped
==== Log checksum 94F92F3F2504FAAA6E020D2D9C312BA48659835E03A95C2C387FC1BDB9BD0C38 ====

Содержание индексной карты (.CUE)

REM GENRE RockREM DATE 1988REM DISCID 920B650BREM COMMENT "ExactAudioCopy v1.3"PERFORMER "Noiseworks"TITLE "Touch"REM COMPOSER ""FILE "01 - Simple Man.wav" WAVE  TRACK 01 AUDIO    TITLE "Simple Man"    PERFORMER "Noiseworks"    REM COMPOSER ""    INDEX 01 00:00:00  TRACK 02 AUDIO    TITLE "Touch"    PERFORMER "Noiseworks"    REM COMPOSER ""    INDEX 00 03:47:57FILE "02 - Touch.wav" WAVE    INDEX 01 00:00:00  TRACK 03 AUDIO    TITLE "Voice Of Reason"    PERFORMER "Noiseworks"    REM COMPOSER ""    INDEX 00 05:03:63FILE "03 - Voice Of Reason.wav" WAVE    INDEX 01 00:00:00  TRACK 04 AUDIO    TITLE "Chained"    PERFORMER "Noiseworks"    REM COMPOSER ""    INDEX 00 04:15:33FILE "04 - Chained.wav" WAVE    INDEX 01 00:00:00  TRACK 05 AUDIO    TITLE "Home"    PERFORMER "Noiseworks"    REM COMPOSER ""    INDEX 00 04:22:62FILE "05 - Home.wav" WAVE    INDEX 01 00:00:00FILE "06 - I Can't Win.wav" WAVE  TRACK 06 AUDIO    TITLE "I Can't Win"    PERFORMER "Noiseworks"    REM COMPOSER ""    INDEX 01 00:00:00  TRACK 07 AUDIO    TITLE "Letter"    PERFORMER "Noiseworks"    REM COMPOSER ""    INDEX 00 02:53:60FILE "07 - Letter.wav" WAVE    INDEX 01 00:00:00  TRACK 08 AUDIO    TITLE "Tell It Like It Is"    PERFORMER "Noiseworks"    REM COMPOSER ""    INDEX 00 05:30:55FILE "08 - Tell It Like It Is.wav" WAVE    INDEX 01 00:00:00  TRACK 09 AUDIO    TITLE "Keep Me Running"    PERFORMER "Noiseworks"    REM COMPOSER ""    INDEX 00 04:21:20FILE "09 - Keep Me Running.wav" WAVE    INDEX 01 00:00:00  TRACK 10 AUDIO    TITLE "Live And Die"    PERFORMER "Noiseworks"    REM COMPOSER ""    INDEX 00 04:49:38FILE "10 - Live And Die.wav" WAVE    INDEX 01 00:00:00  TRACK 11 AUDIO    TITLE "In My Youth"    PERFORMER "Noiseworks"    REM COMPOSER ""    INDEX 00 04:34:72FILE "11 - In My Youth.wav" WAVE    INDEX 01 00:00:00

AccurateRip

[CUETools log; Date: 10.01.2018 15:37:02; Version: 2.1.5][CTDB TOCID: K6Kh13AgNLe3Wh0ssk9wcoreuq0-] found.Track | CTDB Status  1   | (46/46) Accurately ripped  2   | (46/46) Accurately ripped  3   | (46/46) Accurately ripped  4   | (46/46) Accurately ripped  5   | (46/46) Accurately ripped  6   | (46/46) Accurately ripped  7   | (46/46) Accurately ripped  8   | (46/46) Accurately ripped  9   | (46/46) Accurately ripped 10   | (46/46) Accurately ripped 11   | (46/46) Accurately ripped[AccurateRip ID: 001419a2-00aeb31d-920b650b] found.Track   [  CRC   |   V2   ] Status 01     [922f5be1|ab3b5134] (13+17/30) Accurately ripped 02     [78128c03|c90b7cc7] (13+17/30) Accurately ripped 03     [d906cf1e|32954ef0] (13+17/30) Accurately ripped 04     [c06a8a34|f95d857f] (13+17/30) Accurately ripped 05     [98614550|5a3d1cd5] (12+17/29) Accurately ripped 06     [f965102d|4f6933fc] (13+17/30) Accurately ripped 07     [732faae0|46b6f80f] (12+16/28) Accurately ripped 08     [75cde304|f89afaf4] (13+17/30) Accurately ripped 09     [4c8118b1|0df84924] (13+17/30) Accurately ripped 10     [4526dbb1|d2c2a27f] (13+17/30) Accurately ripped 11     [28945739|22bc6495] (13+17/30) Accurately ripped
Track Peak [ CRC32 ] [W/O NULL] [ LOG ] -- 95,7 [2FA1A463] [AEEA3106] 01 95,7 [83D492E9] [D5D4E622] CRC32 02 95,7 [62E0C5B4] [D48430DB] CRC32 03 95,7 [F1C1ACF1] [DE6960C7] CRC32 04 95,7 [14904944] [37EE8C00] CRC32 05 95,6 [ED06811C] [C2935B41] CRC32 06 95,7 [6E9B7B0F] [35BE6935] CRC32 07 95,7 [A4824956] [1A6FF89C] CRC32 08 87,3 [D3EA6009] [ABD332C1] CRC32 09 95,7 [FDDE8F18] [DB3AAE16] CRC32 10 84,7 [BC852DE2] [3AD4E35E] CRC32 11 87,3 [4938F41A] [FEB9BE56] CRC32

To download the file disable ad blocking, and reload the page.

disable adblock How to disable ad blocking?

Download by magnet link 302 MB Download Torrent

Login using:

Загрузка...

Similar topics



   
Current time is: 16-Dec 06:55 :: All times are UTC + 3