Оля Полякова


Жанр: Pop
Носитель: CD, WEB
Источник: личный CD rip + WEB
Страна-производитель диска (релиза): Украина
Лета изданий: 2015-2017
Аудиокодек: Monkey's Audio Compressor (*.ape)
Тип рипа: image + .cue \ tracks
Битрейт аудио: LossLess
Общая продолжительность: 01:00:39
--Album

2016 - Шлёпали шлёпки - 00:47:16


01 - Polyakova Style
02 - #Шлёпки
03 - Плавочки
04 - Люли
05 - Любовь-морковь
06 - О Боже, как больно
07 - Первое лето без него
08 - Шарик
09 - Мальчикам это нравится
10 - Мама казала
11 - Кап кап
12 - Love Is
13 - Брошенный котёня
14 - Асталависта

Лог

Exact Audio Copy V1.3 from 2. September 2016
Отчёт EAC об извлечении, выполненном 28. декабря 2017, 16:34
Оля Полякова / Шлёпали шлёпки
Дисковод: HL-DT-STDVDRAM GSA-T20N Adapter: 1 ID: 0
Режим чтения : ДостоверностьИспользование точного потока : ДаОтключение кэша аудио : ДаИспользование указателей C2 : Нет
Коррекция смещения при чтении : 667Способность читать области Lead-in и Lead-out : НетЗаполнение пропущенных сэмплов тишиной : ДаУдаление блоков с тишиной в начале и конце : НетПри вычислениях CRC использовались нулевые сэмплы : ДаИнтерфейс : Встроенный Win32-интерфейс для Win NT/2000
Выходной формат : Пользовательский кодировщикВыбранный битрейт : 768 kBit/sКачество : ВысокийДобавление ID3-тега : НетУтилита сжатия : { M } onkey's { A } udio { C } ompressor (версия 4.26 - сентябрь 2017).exeДополнительные параметры : %dest% -t "DiscID=%cddbid%" -t "Comment= ~ ^ ` @ трудился РУ€_ик @ ` ^ ~ " -t "Artist=%artist%" -t "Album=%albumtitle%" -t "Album Artist=%albumartist%" -t "Year=%year%" -t "Genre=%genre%" MAC.exe %source% %dest% -c4000 -V
TOC извлечённого CD
Трек | Старт | Длительность | Начальный сектор | Конечный сектор --------------------------------------------------------------------- 1 | 0:00.00 | 3:13.48 | 0 | 14522 2 | 3:13.48 | 3:37.47 | 14523 | 30844 3 | 6:51.20 | 3:34.53 | 30845 | 46947 4 | 10:25.73 | 3:37.00 | 46948 | 63222 5 | 14:02.73 | 3:14.45 | 63223 | 77817 6 | 17:17.43 | 3:15.66 | 77818 | 92508 7 | 20:33.34 | 3:38.14 | 92509 | 108872 8 | 24:11.48 | 3:06.06 | 108873 | 122828 9 | 27:17.54 | 3:34.15 | 122829 | 138893 10 | 30:51.69 | 3:07.54 | 138894 | 152972 11 | 33:59.48 | 3:01.19 | 152973 | 166566 12 | 37:00.67 | 3:41.11 | 166567 | 183152 13 | 40:42.03 | 3:04.53 | 183153 | 197005 14 | 43:46.56 | 3:29.29 | 197006 | 212709
Характеристики диапазона извлечения и сообщения об ошибках
Выбранный диапазон
Имя файла C:\РУ€_ик\Шлёпали шлёпки.wav
Пиковый уровень 98.8 % Скорость извлечения 2.6 X Качество диапазона 100.0 % CRC теста 61BB6D4E CRC копии 61BB6D4E Копирование... OK
Ошибок не произошло
AccurateRip: сводка
Трек 1 отсутствует в базе данныхТрек 2 отсутствует в базе данныхТрек 3 отсутствует в базе данныхТрек 4 отсутствует в базе данныхТрек 5 отсутствует в базе данныхТрек 6 отсутствует в базе данныхТрек 7 отсутствует в базе данныхТрек 8 отсутствует в базе данныхТрек 9 отсутствует в базе данныхТрек 10 отсутствует в базе данныхТрек 11 отсутствует в базе данныхТрек 12 отсутствует в базе данныхТрек 13 отсутствует в базе данныхТрек 14 отсутствует в базе данных
Ни одного трека нет в базе AccurateRip
Конец отчёта
---- CUETools DB Plugin V2.1.6
[CTDB TOCID: knIVZQdDLSSfOumsFj3CSiMjN9Y-] disk not present in databaseSubmit result: knIVZQdDLSSfOumsFj3CSiMjN9Y- has been uploaded
==== Контрольная сумма отчёта F8DB0179CE6C4645D81F40A5C300C8E4E61E8960354625283F91CC31CDE0BD0E ====
Single

2015 - Москва-Красавица (single) - 00:03:06


01 - Москва-Красавица

ЛПК

CUE Corrector v. 8.2.4 / b. 742 (Feb. 16, 2017)————————————————————————————————————————————————————————————————————————Оля Полякова / Москва-Красавица  (single)
Folder: 2015 - Москва-Красавица (single)Audio file: 01 - Москва-Красавица.ape [03:05.747; APE • 1127 kbps • 16 bit \ 44100 Hz • stereo; 25,11 MB (26 325 078 B)]
Accuracy: -m8
File 01 - Москва-Красавица - 100% CDDA————— Summary: —————This track looks like CDDA with probability 100%.————————————————————————————————————————————————————————————————————————
ANALYZER: auCDtect: CD records authenticity detector, version 0.8.2 Copyright (c) 2004 Oleg Berngardt. All rights reserved. Copyright (c) 2004 Alexander Djourik. All rights reserved.
Time elapsed: 1.602 sLog created at December 28, 2017 16:47:20
=== B63E540C21C3C33E60F69E36F5282C95DF72987F00D3DE74ED921F91E24791CF ===

2017 - Бывший (single) - 00:03:23


01 - Бывший

ЛПК

CUE Corrector v. 8.2.4 / b. 742 (Feb. 16, 2017)————————————————————————————————————————————————————————————————————————Оля Полякова / Бывший  (single)
Folder: 2017 - Бывший (single)Audio file: 01 - Бывший.ape [03:22.973; APE • 1129 kbps • 16 bit \ 44100 Hz • stereo; 27,42 MB (28 754 504 B)]
Accuracy: -m8
File 01 - Бывший - 100% CDDA————— Summary: —————This track looks like CDDA with probability 100%.————————————————————————————————————————————————————————————————————————
ANALYZER: auCDtect: CD records authenticity detector, version 0.8.2 Copyright (c) 2004 Oleg Berngardt. All rights reserved. Copyright (c) 2004 Alexander Djourik. All rights reserved.
Time elapsed: 1.796 sLog created at December 28, 2017 16:47:35
=== 7E6189573DB04D33B2B3668F554E2EDF14F72820D4FCC8175BAF8BED99166717 ===

2017 - Номер один (single) - 00:03:41


01 - Номер один

ЛПК

CUE Corrector v. 8.2.4 / b. 742 (Feb. 16, 2017)————————————————————————————————————————————————————————————————————————Оля Полякова / Номер один  (single)
Folder: 2017 - Номер один (single)Audio file: 01 - Номер один.ape [03:40.653; APE • 1101 kbps • 16 bit \ 44100 Hz • stereo; 29,14 MB (30 553 873 B)]
Accuracy: -m8
File 01 - Номер один - 100% CDDA————— Summary: —————This track looks like CDDA with probability 100%.————————————————————————————————————————————————————————————————————————
ANALYZER: auCDtect: CD records authenticity detector, version 0.8.2 Copyright (c) 2004 Oleg Berngardt. All rights reserved. Copyright (c) 2004 Alexander Djourik. All rights reserved.
Time elapsed: 1.732 sLog created at December 28, 2017 16:47:53
=== 8FC6E88574D12FA78DA7ACDC47F6E95B4D5BB2FE0750D397C67E9836B2E9F9BB ===

To download the file disable ad blocking, and reload the page.

disable adblock How to disable ad blocking?

Download by magnet link 444 MB Download Torrent

Login using:

Similar topics



   
Current time is: 15-Oct 21:10 :: All times are UTC ± 0