Информация о фильме
Название: Козырные тузы
Оригинальное название: Smokin' Aces
Год выпуска: 2006
Жанр: боевик, триллер, драма, криминал
Режиссер: Джо Карнахан
В ролях: Райан Рейнольдс (Richard Messner), Энди Гарсиа (Stanley Locke), Джереми Пивен (Buddy Israel), Рэй Лиотта (Donald Carruthers), Алишиа Кис (Georgia Sykes), Тараджи П. Хенсон (Sharice Watters), Коммон (Sir Ivy), Крис Пайн (Darwin Tremor), Джоэл Эдгертон (Hugo Croop), Нестор Карбонелл (Pasquale Acosta «S.A. Gerald Diego»), Томми Флэнаган (Lazlo Soot), Мартин Хендерсон (Hollis Elmore)
О фильме:
Гангстер Бадди Израэл согласился сотрудничать с ФБР и дать показания против своих мафиозных дружков. За его жизнь главой мафии назначено крупное вознаграждение в миллион долларов, и Бадди грозит реальная опасность распрощаться с жизнью еще до начала суда.
Охрана Израэла поручена двум агентам ФБР — Месснеру и Карратерсу, которым предстоит нелегкая задача защищать важного свидетеля от наемных убийц. Но работа агентов усложняется тем, что сам Бадди не привык сидеть в четырех стенах и упорно стремится появляться в людных местах и привлекать всеобщее внимание.

MPAA: R - Лицам до 17 лет обязательно присутствие взрослого
Страна: Великобритания, Франция, США
Студия: Relativity Media, Scion Films Limited, Studio Canal, Universal Pictures, Working Title Films
Продолжительность: 01:49:06
Перевод: Профессиональный (дублированный), Авторский (одноголосый, закадровый)
Файл
Качество: WEB-DL 1080p
Формат: Matroska
Видео: 1920x1080 at 23.976 fps, MPEG-4 AVC, ~11200 kbps avg
Аудио#1: Russian: 48 kHz, DTS, 3/2 (L,C,R,l,r) + LFE ch, ~755 kbps avg |Дубляж, Blu-ray CEE|
Аудио#2: Russian: 48 kHz, DTS, 3/2 (L,C,R,l,r) + LFE ch, ~1509 kbps avg |Авторский, А.Гаврилов|
Аудио#3: Russian: 48 kHz, DTS, 3/2 (L,C,R,l,r) + LFE ch, ~1509 kbps avg |Авторский, Ю.Немахов|
Аудио#4: Russian: 48 kHz, DTS, 3/2 (L,C,R,l,r) + LFE ch, ~1509 kbps avg |Авторский, М.Яроцкий|
Аудио#5: English: 48 kHz, DTS, 3/2 (L,C,R,l,r) + LFE ch, ~1509 kbps avg |Оригинал|
Аудио#6: English: 48 kHz, AC3, 2.0 (L,R) ch, ~192 kbps avg |Commentary|
Субтитры: Russian (Captions, Full, Commentary), English (SDH, Full, Commentary)
***Исходник видео - Amazon.
***Релиз: spartanec163.

Знаете ли вы, что...

Мастер перевоплощения Ласло Суут имеет очень большое внешнее сходство с Чикатило (широко известное фото после ареста).
Мастер боли Паскуаль Акоста имеет прозвище «El Estrago» (исп): урон, разрушение, разорение (причинённые стихией, войной); вред, ущерб (тж перен.); жертвы (эпидемии и т. п.)
У режиссёра фильма Джо Карнахан была роль-камео - один из налётчиков в чёрных масках в начале фильма.

MediaInfo

Общее
Уникальный идентификатор : 216817829991494165759882868769178509672 (0xA31D985A298E5BF5BF3351F396C7E168)
Полное имя : Smokin'.Aces.2006.Open.Matte.1080p.WEB-DL.4xRus.Eng.mkv
Формат : Matroska
Версия формата : Version 4 / Version 2
Размер файла : 14,1 Гбайт
Продолжительность : 1 ч. 49 м.
Режим общего битрейта : Переменный
Общий поток : 18,6 Мбит/сек
Название фильма : Smokin'.Aces.2006.Open.Matte.1080p.WEB-DL.4xRus.Eng-spartanec163
Дата кодирования : UTC 2018-01-11 08:36:24
Программа кодирования : mkvmerge v7.9.0 ('Birds') 64bit
Библиотека кодирования : libebml v1.3.1 + libmatroska v1.4.2
Видео
Идентификатор : 1
Формат : AVC
Формат/Информация : Advanced Video Codec
Профиль формата : High@L4.0
Параметр CABAC формата : Да
Параметр ReFrames формата : 4 кадра
Идентификатор кодека : V_MPEG4/ISO/AVC
Продолжительность : 1 ч. 49 м.
Вид битрейта : Переменный
Битрейт : 11,2 Мбит/сек
Максимальный битрейт : 15,0 Мбит/сек
Ширина : 1920 пикселей
Высота : 1080 пикселей
Соотношение сторон : 16:9
Режим частоты кадров : Постоянный
Частота кадров : 23,976 кадра/сек
Цветовое пространство : YUV
Субдискретизация насыщенности : 4:2:0
Битовая глубина : 8 бит
Тип развёртки : Прогрессивная
Бит/(Пиксели*Кадры) : 0.225
Размер потока : 8,54 Гбайт (60%)
Заголовок : WEB-DL 1080p (Amazon DE)
Язык : German
Default : Да
Forced : Нет
Основные цвета : BT.709
Характеристики трансфера : BT.709
Коэффициенты матрицы : BT.709
Аудио #1
Идентификатор : 2
Формат : DTS
Формат/Информация : Digital Theater Systems
Режим : 16
Параметр Endianness формата : Big
Идентификатор кодека : A_DTS
Продолжительность : 1 ч. 49 м.
Вид битрейта : Постоянный
Битрейт : 755 Кбит/сек
Каналы : 6 каналов
Расположение каналов : Front: L C R, Side: L R, LFE
Частота : 48,0 КГц
Битовая глубина : 24 бит
Метод сжатия : С потерями
Размер потока : 589 Мбайт (4%)
Заголовок : DTS 5.1 755Kbps (Дубляж)
Язык : Russian
Default : Да
Forced : Нет
Аудио #2
Идентификатор : 3
Формат : DTS
Формат/Информация : Digital Theater Systems
Режим : 16
Параметр Endianness формата : Big
Идентификатор кодека : A_DTS
Продолжительность : 1 ч. 49 м.
Вид битрейта : Постоянный
Битрейт : 1509 Кбит/сек
Каналы : 6 каналов
Расположение каналов : Front: L C R, Side: L R, LFE
Частота : 48,0 КГц
Битовая глубина : 24 бит
Метод сжатия : С потерями
Размер потока : 1,15 Гбайт (8%)
Заголовок : DTS 5.1 1509kbps (Авторский, одноголосый - А. Гаврилов)
Язык : Russian
Default : Нет
Forced : Нет
Аудио #3
Идентификатор : 4
Формат : DTS
Формат/Информация : Digital Theater Systems
Режим : 16
Параметр Endianness формата : Big
Идентификатор кодека : A_DTS
Продолжительность : 1 ч. 49 м.
Вид битрейта : Постоянный
Битрейт : 1509 Кбит/сек
Каналы : 6 каналов
Расположение каналов : Front: L C R, Side: L R, LFE
Частота : 48,0 КГц
Битовая глубина : 24 бит
Метод сжатия : С потерями
Размер потока : 1,15 Гбайт (8%)
Заголовок : DTS 5.1 1509kbps (Авторский, одноголосый - Ю. Немахов)
Язык : Russian
Default : Нет
Forced : Нет
Аудио #4
Идентификатор : 5
Формат : DTS
Формат/Информация : Digital Theater Systems
Режим : 16
Параметр Endianness формата : Big
Идентификатор кодека : A_DTS
Продолжительность : 1 ч. 49 м.
Вид битрейта : Постоянный
Битрейт : 1509 Кбит/сек
Каналы : 6 каналов
Расположение каналов : Front: L C R, Side: L R, LFE
Частота : 48,0 КГц
Битовая глубина : 24 бит
Метод сжатия : С потерями
Размер потока : 1,15 Гбайт (8%)
Заголовок : DTS 5.1 1509kbps (Одноголосый - М. Яроцкий aka kyberpunk)
Язык : Russian
Default : Нет
Forced : Нет
Аудио #5
Идентификатор : 6
Формат : DTS
Формат/Информация : Digital Theater Systems
Режим : 16
Параметр Endianness формата : Big
Идентификатор кодека : A_DTS
Продолжительность : 1 ч. 49 м.
Вид битрейта : Постоянный
Битрейт : 1509 Кбит/сек
Каналы : 6 каналов
Расположение каналов : Front: L C R, Side: L R, LFE
Частота : 48,0 КГц
Битовая глубина : 24 бит
Метод сжатия : С потерями
Размер потока : 1,15 Гбайт (8%)
Заголовок : DTS 5.1 1509kbps (Оригинал)
Язык : English
Default : Нет
Forced : Нет
Аудио #6
Идентификатор : 7
Формат : AC-3
Формат/Информация : Audio Coding 3
Профиль формата : Dolby Digital
Расширение режима : CM (complete main)
Параметр Endianness формата : Big
Идентификатор кодека : A_AC3
Продолжительность : 1 ч. 49 м.
Вид битрейта : Постоянный
Битрейт : 192 Кбит/сек
Каналы : 2 канала
Расположение каналов : Front: L R
Частота : 48,0 КГц
Битовая глубина : 16 бит
Метод сжатия : С потерями
Размер потока : 150 Мбайт (1%)
Заголовок : AC3 2.0 192Kbps (Комментарии Джо Карнахана, Уолтера Мерча и Роба Фрейзена)
Язык : English
Default : Нет
Forced : Нет
Текст #1
Идентификатор : 8
Формат : UTF-8
Идентификатор кодека : S_TEXT/UTF8
Идентификатор кодека/Информация : UTF-8 Plain Text
Заголовок : Надписи
Язык : Russian
Default : Да
Forced : Нет
Текст #2
Идентификатор : 9
Формат : UTF-8
Идентификатор кодека : S_TEXT/UTF8
Идентификатор кодека/Информация : UTF-8 Plain Text
Заголовок : Полные
Язык : Russian
Default : Нет
Forced : Нет
Текст #3
Идентификатор : 10
Формат : UTF-8
Идентификатор кодека : S_TEXT/UTF8
Идентификатор кодека/Информация : UTF-8 Plain Text
Заголовок : Комментарии Джо Карнахана, Уолтера Мерча и Роба Фрейзена
Язык : Russian
Default : Нет
Forced : Нет
Текст #4
Идентификатор : 11
Формат : UTF-8
Идентификатор кодека : S_TEXT/UTF8
Идентификатор кодека/Информация : UTF-8 Plain Text
Заголовок : SDH, полные
Язык : English
Default : Нет
Forced : Нет
Текст #5
Идентификатор : 12
Формат : UTF-8
Идентификатор кодека : S_TEXT/UTF8
Идентификатор кодека/Информация : UTF-8 Plain Text
Заголовок : Комментарии Джо Карнахана, Уолтера Мерча и Роба Фрейзена
Язык : English
Default : Нет
Forced : Нет

Скриншоты

To download the file disable ad blocking, and reload the page.

disable adblock How to disable ad blocking?

Download by magnet link 14.14 GB Download Torrent

Login using:

Similar topics

Неистовые / Furia (1999) DVDRip-AVC | A
 2.18 GB   2 | 2   03-Sep-16 12:16   15
Перекресток миров / Crossworlds (1996) DVDRip-AVC | P2, A
 2.86 GB   16 | 0   02-Apr-17 17:00   4
Коммандос / Commando (1985) BDRip от HQCLUB | Director's Cut
 1.45 GB   34 | 2   03-Sep-16 13:15   4


   
Current time is: 23-Oct 07:01 :: All times are UTC ± 0