Информация о фильме
Название: Цена страха
Оригинальное название: The Sum of All Fears
Год выхода: 2002
Жанр: боевик, триллер, драма
Режиссер: Фил Олден Робинсон
В ролях: Бен Аффлек, Морган Фриман, Джеймс Кромуэлл, Кен Дженкинс, Лив Шрайбер, Брюс МакГилл, Джон Бисли, Расселл Боббитт, Филип Бэйкер Холл, Элисон Дарси, Роберт Мартин Робинсон, Ли Гарлингтон, Джэми Харольд, Алан Бейтс
О фильме:
Когда президент России внезапно умирает, его пост занимает человек, о котором общественности известно достаточно мало. Именно этот факт увеличивает напряженную обстановку в стране. Глава ЦРУ Билл Кэбот принимает на работу молодого аналитика Джека Райана, специалиста по России, чтобы получать достоверную информацию из первых рук.
Вскоре случается ужасное: столица Чечни обзаводится ядерной бомбой. Американцы быстро начинают обвинять во всем русских. Также они недоверчиво относятся к сведениям Райана, который с риском для жизни проводит свои расследования. А он прав.
Террористы провоцируют начало войны между двумя нациями, находясь позади сцены. Когда они успешно взрывают бомбу рядом с Балтимором во время Золотого Кубка, мир уже находится на грани войны. Но... если Райан вовремя достанет необходимые доказательства, то этот поток бедствий прекратится.

Выпущено: США, Германия
Студия: Paramount Pictures
Продолжительность: 02:03:41
Перевод: Дублированный (лицензия) + Оригинал
Файл
Кодек: x264
Качество: BDRip (источник: BD-Remux)
Видео: 1920x804 (2,40:1), 23.976 fps, 7955 kbps
Аудио #1: AC-3, 6 ch, 384 kbps (Rus)
Аудио #2: AC-3, 6 ch, 640 kbps (Eng)
Субтитры: Русские, Английские

Скриншоты

MI

Общее
Уникальный идентификатор : 204224105603525983336133041522965167013 (0x99A421CD0792D5A3A8D30882DD573BA5)
Полное имя : F:The.Sum.of.All.Fears.2002.BDRip.1080p.Rus.Eng.mkv
Формат : Matroska
Версия формата : Version 2
Размер файла : 7,76 Гбайт
Продолжительность : 2 ч. 3 м.
Общий поток : 8982 Кбит/сек
Название фильма : Цена страха / The Sum of All Fears (2002)
Дата кодирования : UTC 2013-11-13 17:16:56
Программа кодирования : mkvmerge v5.8.0 ('No Sleep / Pillow') built on Sep 2 2012 15:37:04
Библиотека кодирования : libebml v1.2.3 + libmatroska v1.3.0
Attachment : Yes
Видео
Идентификатор : 1
Формат : AVC
Формат/Информация : Advanced Video Codec
Профиль формата : High@L4.1
Параметр CABAC формата : Да
Параметр ReFrames формата : 5 кадров
Идентификатор кодека : V_MPEG4/ISO/AVC
Продолжительность : 2 ч. 3 м.
Битрейт : 7955 Кбит/сек
Ширина : 1920 пикселей
Высота : 804 пикселя
Соотношение сторон : 2,40:1
Режим частоты кадров : Постоянный
Частота кадров : 23,976 кадра/сек
Цветовое пространство : YUV
Субдискретизация насыщенности : 4:2:0
Битовая глубина : 8 бит
Тип развёртки : Прогрессивная
Бит/(Пиксели*Кадры) : 0.215
Размер потока : 6,72 Гбайт (87%)
Заголовок : Release by N1NT3NDO
Библиотека кодирования : x264 core 140 r2377 1ca7bb9
Настройки программы : cabac=1 / ref=5 / deblock=1:-3:-3 / analyse=0x3:0x133 / me=umh / subme=11 / psy=1 / psy_rd=1.00:0.00 / mixed_ref=1 / me_range=32 / chroma_me=1 / trellis=2 / 8x8dct=1 / cqm=0 / deadzone=21,11 / fast_pskip=0 / chroma_qp_offset=-2 / threads=12 / lookahead_threads=1 / sliced_threads=0 / nr=0 / decimate=0 / interlaced=0 / bluray_compat=0 / constrained_intra=0 / bframes=6 / b_pyramid=2 / b_adapt=2 / b_bias=0 / direct=3 / weightb=1 / open_gop=0 / weightp=2 / keyint=240 / keyint_min=23 / scenecut=40 / intra_refresh=0 / rc=2pass / mbtree=0 / bitrate=7955 / ratetol=1.0 / qcomp=0.60 / qpmin=0 / qpmax=69 / qpstep=4 / cplxblur=20.0 / qblur=0.5 / ip_ratio=1.40 / pb_ratio=1.30 / aq=1:1.00
Язык : English
Default : Да
Forced : Нет
Аудио #1
Идентификатор : 2
Формат : AC-3
Формат/Информация : Audio Coding 3
Расширение режима : CM (complete main)
Параметр Endianness формата : Big
Идентификатор кодека : A_AC3
Продолжительность : 2 ч. 3 м.
Вид битрейта : Постоянный
Битрейт : 384 Кбит/сек
Каналы : 6 каналов
Расположение каналов : Front: L C R, Side: L R, LFE
Частота : 48,0 КГц
Битовая глубина : 16 бит
Метод сжатия : С потерями
Размер потока : 340 Мбайт (4%)
Заголовок : Rus
Язык : Russian
Default : Да
Forced : Нет
Аудио #2
Идентификатор : 3
Формат : AC-3
Формат/Информация : Audio Coding 3
Расширение режима : CM (complete main)
Параметр Endianness формата : Big
Идентификатор кодека : A_AC3
Продолжительность : 2 ч. 3 м.
Вид битрейта : Постоянный
Битрейт : 640 Кбит/сек
Каналы : 6 каналов
Расположение каналов : Front: L C R, Side: L R, LFE
Частота : 48,0 КГц
Битовая глубина : 16 бит
Метод сжатия : С потерями
Размер потока : 566 Мбайт (7%)
Заголовок : Eng
Язык : English
Default : Нет
Forced : Нет
Текст #1
Идентификатор : 4
Формат : UTF-8
Идентификатор кодека : S_TEXT/UTF8
Идентификатор кодека/Информация : UTF-8 Plain Text
Заголовок : Rus
Язык : Russian
Default : Нет
Forced : Нет
Текст #2
Идентификатор : 5
Формат : UTF-8
Идентификатор кодека : S_TEXT/UTF8
Идентификатор кодека/Информация : UTF-8 Plain Text
Заголовок : Eng
Язык : English
Default : Нет
Forced : Нет
Меню
00:00:00.000 : :Chapter 01
00:04:50.246 : :Chapter 02
00:13:00.320 : :Chapter 03
00:24:06.569 : :Chapter 04
00:30:06.261 : :Chapter 05
00:36:32.731 : :Chapter 06
00:48:06.967 : :Chapter 07
01:01:08.997 : :Chapter 08
01:06:20.518 : :Chapter 09
01:13:17.015 : :Chapter 10
01:20:12.599 : :Chapter 11
01:26:05.493 : :Chapter 12
01:33:53.210 : :Chapter 13
01:42:02.783 : :Chapter 14
01:47:23.060 : :Chapter 15
01:51:39.650 : :Chapter 16
01:57:15.653 : :Chapter 17

To download the file disable ad blocking, and reload the page.

disable adblock How to disable ad blocking?

Download by magnet link 7.76 GB Download Torrent

Login using:

Similar topics



   
Current time is: 16-Oct 07:29 :: All times are UTC ± 0