Молодые полицейские / Полночные беглецы / Young Policee / Midnight Runners
Год выпуска: 2017
Страна: Южная Корея
Жанр: экшен, криминал, драма
Продолжительность: 01:48:35
Перевод: Любительский (двухголосый закадровый)
Русские субтитры: есть
Режиссер: Kim Joo Hwan/ Ким Чжу Хван
В ролях: Park Seo Joon / Пак Со Чжун
Kang Ha Neul /Кан Ха Ныль
Sung Dong Il /Сон Дон Иль
Park Ha Sun / Пак Ха Сон
Ko Joon / Ко Чжун
Lee Ho Jeong / Ли Хо Чжон
Описание: Пак Ки Чжон и Кан Хи Ёль - студенты полицейского университета. Несмотря на разность характеров и воспитания, они стали лучшими друзьями и делят пополам как удачи, так и невезение. Однажды, решив найти себе подружек, они отправились в ночной клуб. Но их мечтам в тот вечер не суждено было сбыться. Когда, кажется, им наконец-то улыбнулась удача, и они встречают понравившуюся девушку, ее похищают прямо у них на глазах. Обращение в полицию не приносит желаемых результатов, и парни решают сами найти преступников и спасти похищенную. У них всего одна ночь, чтобы раскрыть преступление. И эта ночь изменит их навсегда... ©Toya
Релиз группы: и
Доп. информация:
Перевод осуществляла команда фансаб-группы "Альянс"
Перевод: Strunidushi
Редакция: Toya
Тайминг: Mad}{Fly
Оформление: Хрюно-зай
Озвучивание: Ворон и Лана
Смотреть обязательно с форсированными субтитрами на надписи!
Прежде чем качать видео и комментировать, скачайте сэмпл и послушайте!

Качество видео: BDRip 1080p[CHD] - Сэмпл
Формат видео: MKV
Видео: 1920x804 (2.40:1), 24,000 fps, x264 ~12,3 Мбит/сек avg, 0.332 bit/pixel
Аудио: 48 kHz, AC3 Dolby Digital, 3/2 (L,C,R,l,r) + LFE ch, ~640 kbps (Русский)
Аудио 2: 48 kHz, AC3 Dolby Digital, 3/2 (L,C,R,l,r) + LFE ch, ~640 kbps (Корейский)
Формат субтитров: [форсированный(надписи) / полные]softsub (ass)

Скриншоты

отчет MediaInfo

Формат : Matroska
Версия формата : Version 4 / Version 2
Размер файла : 10,3 Гбайт
Продолжительность : 1 ч. 48 м.
Общий поток : 13,6 Мбит/сек
Дата кодирования : UTC 2018-01-11 17:19:12
Программа кодирования : mkvmerge v8.2.0 ('World of Adventure') 32bit
Библиотека кодирования : libebml v1.3.1 + libmatroska v1.4.2
Attachments : 8373_0.ttf / 8836.ttf / 10237.ttf / Aerovista.ttf / Arian.ttf / Aventis Deco.ttf / Bertram Modern.ttf / BINND_.TTF / CrashCTT.ttf
Видео
Идентификатор : 1
Формат : AVC
Формат/Информация : Advanced Video Codec
Профиль формата : High@L4.1
Настройки формата : CABAC / 5 Ref Frames
Параметр CABAC формата : Да
Параметр RefFrames формата : 5 кадров
Идентификатор кодека : V_MPEG4/ISO/AVC
Продолжительность : 1 ч. 48 м.
Битрейт : 12,3 Мбит/сек
Ширина : 1920 пикселей
Высота : 804 пикселя
Соотношение сторон : 2,40:1
Режим частоты кадров : Постоянный
Частота кадров : 24,000 кадра/сек
Цветовое пространство : YUV
Субдискретизация насыщенности : 4:2:0
Битовая глубина : 8 бит
Тип развёртки : Прогрессивная
Бит/(Пиксели*Кадры) : 0.332
Размер потока : 9,33 Гбайт (91%)
Библиотека кодирования : x264 core 148 r2744+55 950084e t_mod_Custom [8-bit@all X86]
Настройки программы : cabac=1 / ref=5 / deblock=1:-3:-3 / analyse=0x3:0x133 / me=umh / subme=11 / psy=1 / fade_compensate=0.00 / psy_rd=1.00:0.00 / mixed_ref=1 / me_range=32 / chroma_me=1 / trellis=2 / 8x8dct=1 / cqm=0 / deadzone=21,11 / fast_pskip=1 / chroma_qp_offset=-2 / threads=12 / lookahead_threads=3 / sliced_threads=0 / nr=0 / decimate=1 / interlaced=0 / bluray_compat=0 / constrained_intra=0 / fgo=0 / bframes=11 / b_pyramid=2 / b_adapt=2 / b_bias=0 / direct=1 / weightb=1 / open_gop=0 / weightp=2 / keyint=240 / keyint_min=24 / scenecut=40 / intra_refresh=0 / rc=crf / mbtree=0 / crf=19.1000 / qcomp=0.60 / qpmin=0:0:0 / qpmax=69:69:69 / qpstep=4 / ip_ratio=1.40 / pb_ratio=1.30 / aq=3:1.00 / aq-sensitivity=10.00 / aq-factor=1.00:1.00:1.00 / aq2=0 / aq3=0
Язык : English
Default : Да
Forced : Нет
Аудио #1
Идентификатор : 2
Формат : AC-3
Формат/Информация : Audio Coding 3
Идентификатор кодека : A_AC3
Продолжительность : 1 ч. 48 м.
Вид битрейта : Постоянный
Битрейт : 640 Кбит/сек
Каналы : 6 каналов
Расположение каналов : Front: L C R, Side: L R, LFE
Частота : 48,0 КГц
Частота кадров : 31,250 кадров/сек (1536 SPF)
Битовая глубина : 16 бит
Метод сжатия : С потерями
Размер потока : 497 Мбайт (5%)
Заголовок : Ворон и Лана
Язык : Russian
Default : Да
Forced : Нет
Аудио #2
Идентификатор : 3
Формат : AC-3
Формат/Информация : Audio Coding 3
Идентификатор кодека : A_AC3
Продолжительность : 1 ч. 48 м.
Вид битрейта : Постоянный
Битрейт : 640 Кбит/сек
Каналы : 6 каналов
Расположение каналов : Front: L C R, Side: L R, LFE
Частота : 48,0 КГц
Частота кадров : 31,250 кадров/сек (1536 SPF)
Битовая глубина : 16 бит
Метод сжатия : С потерями
Размер потока : 497 Мбайт (5%)
Заголовок : Original
Язык : Korean
Default : Нет
Forced : Нет
Текст #1
Идентификатор : 4
Формат : ASS
Идентификатор кодека : S_TEXT/ASS
Идентификатор кодека/Информация : Advanced Sub Station Alpha
Продолжительность : 1 ч. 48 м.
Битрейт : 7 бит/сек
ElementCount : 47
Метод сжатия : Без потерь
Размер потока : 5,59 Кбайт (0%)
Заголовок : форсированный(надписи)
Язык : Russian
Default : Да
Forced : Да
Текст #2
Идентификатор : 5
Формат : ASS
Идентификатор кодека : S_TEXT/ASS
Идентификатор кодека/Информация : Advanced Sub Station Alpha
Продолжительность : 1 ч. 48 м.
Битрейт : 124 бит/сек
ElementCount : 1491
Метод сжатия : Без потерь
Размер потока : 98,8 Кбайт (0%)
Заголовок : Перевод - [фансаб-группы "Альянс"]
Язык : Russian
Default : Нет
Forced : Нет
Меню
00:00:00.000 : :第 01 章
00:08:24.333 : :第 02 章
00:18:09.333 : :第 03 章
00:27:14.541 : :第 04 章
00:37:01.250 : :第 05 章
00:45:27.041 : :第 06 章
00:53:22.791 : :第 07 章
01:02:51.291 : :第 08 章
01:13:08.916 : :第 09 章
01:22:36.625 : :第 10 章
01:29:27.500 : :第 11 章
01:38:21.583 : :第 12 章

Пример Субтитров

Dialogue: 0,0:01:12.90,0:01:17.50,Base,,0,0,0,,Попрощайтесь со своими семьями и друзьями.
Dialogue: 0,0:01:17.91,0:01:19.71,Base,,0,0,0,,– Здравия желаю!N– Здравия желаю!
Dialogue: 0,0:01:20.22,0:01:22.23,Base,,0,0,0,,Слушай старших по званию.
Dialogue: 0,0:01:22.31,0:01:25.32,Base,,0,0,0,,Ешь во время. И не мёрзни ночью.
Dialogue: 0,0:01:25.95,0:01:27.85,Base,,0,0,0,,Сынок, ты не передумал?
Dialogue: 0,0:01:27.85,0:01:30.50,Base,,0,0,0,,Тяжко станет, возвращайся. Хорошо?
Dialogue: 0,0:01:31.99,0:01:34.60,Base,,0,0,0,,Да справлюсь я. Не волнуйся ни о чём.
Dialogue: 0,0:01:34.74,0:01:36.12,Base,,0,0,0,,Сама не болей.
Dialogue: 0,0:01:40.43,0:01:42.18,Base,,0,0,0,,– Пока.N– Ага.
Dialogue: 0,0:01:44.21,0:01:46.69,Base,,0,0,0,,– Кому ты?N– Маме.
Dialogue: 0,0:01:48.20,0:01:50.10,Base,,0,0,0,,Может, и нам обняться?
Dialogue: 0,0:01:52.63,0:01:55.15,Base,,0,0,0,,Верно. Я тоже так подумал.
Dialogue: 0,0:01:57.76,0:01:59.50,Base,,0,0,0,,– Пока.N– Хи Ёль.
Dialogue: 0,0:02:00.36,0:02:02.10,Base,,0,0,0,,Я горжусь тобой.
Dialogue: 0,0:02:05.10,0:02:06.89,Base,,0,0,0,,Холодно сегодня, застегнись.
Dialogue: 0,0:02:10.28,0:02:12.06,Base,,0,0,0,,Внимание. Смирно.
Dialogue: 0,0:02:13.54,0:02:15.14,Base,,0,0,0,,Вольно, по-парадному!
Dialogue: 0,0:02:16.27,0:02:17.32,Base,,0,0,0,,Смирно!
Dialogue: 0,0:02:19.06,0:02:21.15,Base,,0,0,0,,Приветствие родителям выполнить!
Dialogue: 0,0:02:23.76,0:02:24.82,Base,,0,0,0,,Вольно.
Dialogue: 0,0:02:26.17,0:02:27.44,Base,,0,0,0,,Нале-во.
Dialogue: 0,0:02:29.88,0:02:31.60,Base,,0,0,0,,Вперёд, марш.
Dialogue: 0,0:02:54.84,0:02:57.22,Base,,0,0,0,,А можно не сильноNкоротко постричь, пожалуйста?
Dialogue: 0,0:02:57.23,0:02:59.56,Base,,0,0,0,,Мне потом баки вечность отращивать.
Dialogue: 0,0:02:59.57,0:03:02.62,Base,,0,0,0,,Прошу вас. А-то я целый год волосы растил.
Dialogue: 0,0:03:05.54,0:03:07.00,Base,,0,0,0,,Баки, баки…
Dialogue: 0,0:03:07.34,0:03:10.00,Base,,0,0,0,,Тут не режьте слишком…
Dialogue: 0,0:03:22.90,0:03:24.16,Base,,0,0,0,,Болван?
Dialogue: 0,0:03:39.48,0:03:40.69,Base,,0,0,0,,Подождите.
Dialogue: 0,0:03:42.21,0:03:44.09,Base,,0,0,0,,Вы машинку стерилизуете?
Dialogue: 0,0:03:44.55,0:03:45.55,Base,,0,0,0,,Нет.
Dialogue: 0,0:03:46.69,0:03:47.81,Base,,0,0,0,,Так и знал.
Dialogue: 0,0:03:48.62,0:03:52.11,Base,,0,0,0,,Если не стерилизовать,Nможно кожную инфекцию занести.

To download the file disable ad blocking, and reload the page.

disable adblock How to disable ad blocking?

Download by magnet link 10.3 GB Download Torrent

Login using:

Similar topics

Креола / Kreola (1993) DVDRip | L1
 1.4 GB   1 | 1   09-Oct-16 17:33   11
На тонком канате / Al Hevel Dak (1980) SATRip | Sub
 1.19 GB   0 | 0   09-Oct-16 17:10   5
Всё ради нее / Pour elle (2008) HDRip
 1.45 GB   2 | 0   31-May-16 17:10   4


   
Current time is: 16-Oct 08:54 :: All times are UTC ± 0