Информация о фильме:
Название: Прямая и явная угроза
Оригинальное название: Clear and Present Danger
Год выхода: 1994
Жанр: боевик, триллер, драма
Режиссер: Филлип Нойс
В главных ролях: Харрисон Форд, Уиллем Дефо, Энн Арчер, Хоаким де Альмейда, Генри Черны, Харрис Юлин, Дональд Моффат, Мигель Сандовал, Бенджамин Брэтт, Рэймонд Крус
О фильме:
Джек Райан на этот раз оказывается во главе отдела разведки ЦРУ, и вхож в Овальный кабинет Белого Дома. Он вынужден бороться против колумбийских наркодельцов, не ведая, что при попустительстве президента США его помощник по национальной безопасности и шеф ЦРУ проводят, с помощью наемников, боевые операции в Колумбии.

Выпущено: США
Продолжительность: 02:21:15
Перевод: Профессиональный (многоголосый, закадровый)[CEE] + Оригинал
Файл
Кодек: x264
Качество: BDRip 1080p
Видео: 1920x848, 6587 Kbps, 23.976 fps
Аудио #1: AC-3, 6 ch, 640 kbps (Rus)
Аудио #2: AC-3, 6 ch, 640 kbps (Eng)
Субтитры: русские, английские

Скриншоты

MI

Общее
Уникальный идентификатор : 198078634447017094490283342200488756085 (0x95048EADFF3ED933AEE1A470572A8375)
Полное имя : Прямая и явная угроза.1994.BDRip.1080p.Rus.Eng.mkv
Формат : Matroska
Версия формата : Version 4 / Version 2
Размер файла : 7,76 Гбайт
Продолжительность : 2 ч. 21 м.
Общий поток : 7868 Кбит/сек
Название фильма : Прямая и явная угроза.1994
Дата кодирования : UTC 2013-03-01 17:03:37
Программа кодирования : mkvmerge v6.0.0 ('Coming Up For Air') built on Jan 20 2013 09:52:00
Библиотека кодирования : libebml v1.3.0 + libmatroska v1.4.0
Видео
Идентификатор : 1
Формат : AVC
Формат/Информация : Advanced Video Codec
Профиль формата : High@L4.1
Параметр CABAC формата : Да
Параметр ReFrames формата : 4 кадра
Идентификатор кодека : V_MPEG4/ISO/AVC
Продолжительность : 2 ч. 21 м.
Битрейт : 6587 Кбит/сек
Ширина : 1920 пикселей
Высота : 848 пикселей
Соотношение сторон : 2,25:1
Режим частоты кадров : Постоянный
Частота кадров : 23,976 кадра/сек
Цветовое пространство : YUV
Субдискретизация насыщенности : 4:2:0
Битовая глубина : 8 бит
Тип развёртки : Прогрессивная
Бит/(Пиксели*Кадры) : 0.169
Размер потока : 6,35 Гбайт (82%)
Заголовок : Rip by Boriy
Библиотека кодирования : x264 core 129 r2245 bc13772
Настройки программы : cabac=1 / ref=4 / deblock=1:0:0 / analyse=0x3:0x113 / me=umh / subme=10 / psy=1 / psy_rd=1.00:0.10 / mixed_ref=1 / me_range=32 / chroma_me=1 / trellis=2 / 8x8dct=1 / cqm=0 / deadzone=21,11 / fast_pskip=0 / chroma_qp_offset=-2 / threads=12 / lookahead_threads=2 / sliced_threads=0 / nr=0 / decimate=0 / interlaced=0 / bluray_compat=0 / constrained_intra=0 / bframes=5 / b_pyramid=2 / b_adapt=2 / b_bias=0 / direct=3 / weightb=1 / open_gop=0 / weightp=2 / keyint=240 / keyint_min=23 / scenecut=40 / intra_refresh=0 / rc=2pass / mbtree=0 / bitrate=6587 / ratetol=1.0 / qcomp=0.60 / qpmin=0 / qpmax=69 / qpstep=4 / cplxblur=20.0 / qblur=0.5 / ip_ratio=1.40 / pb_ratio=1.30 / aq=1:0.80
Язык : English
Default : Да
Forced : Нет
Аудио #1
Идентификатор : 2
Формат : AC-3
Формат/Информация : Audio Coding 3
Расширение режима : CM (complete main)
Параметр Endianness формата : Big
Идентификатор кодека : A_AC3
Продолжительность : 2 ч. 21 м.
Вид битрейта : Постоянный
Битрейт : 640 Кбит/сек
Каналы : 6 каналов
Расположение каналов : Front: L C R, Side: L R, LFE
Частота : 48,0 КГц
Битовая глубина : 16 бит
Метод сжатия : С потерями
Размер потока : 647 Мбайт (8%)
Заголовок : Профессиональный (многоголосый, закадровый)[CEE]
Язык : Russian
Default : Да
Forced : Нет
Аудио #2
Идентификатор : 3
Формат : AC-3
Формат/Информация : Audio Coding 3
Расширение режима : CM (complete main)
Параметр Endianness формата : Big
Идентификатор кодека : A_AC3
Продолжительность : 2 ч. 21 м.
Вид битрейта : Постоянный
Битрейт : 640 Кбит/сек
Каналы : 6 каналов
Расположение каналов : Front: L C R, Side: L R, LFE
Частота : 48,0 КГц
Битовая глубина : 16 бит
Метод сжатия : С потерями
Размер потока : 647 Мбайт (8%)
Заголовок : Оригинал
Язык : English
Default : Нет
Forced : Нет
Текст #1
Идентификатор : 4
Формат : UTF-8
Идентификатор кодека : S_TEXT/UTF8
Идентификатор кодека/Информация : UTF-8 Plain Text
Язык : Russian
Default : Нет
Forced : Нет
Текст #2
Идентификатор : 5
Формат : UTF-8
Идентификатор кодека : S_TEXT/UTF8
Идентификатор кодека/Информация : UTF-8 Plain Text
Язык : English
Default : Нет
Forced : Нет
Меню
00:00:00.000 : :Chapter 1
00:07:51.637 : :Chapter 2
00:12:20.823 : :Chapter 3
00:15:48.072 : :Chapter 4
00:18:47.042 : :Chapter 5
00:25:38.036 : :Chapter 6
00:30:02.550 : :Chapter 7
00:34:02.415 : :Chapter 8
00:40:07.154 : :Chapter 9
00:49:25.420 : :Chapter 10
00:52:49.583 : :Chapter 11
01:02:34.375 : :Chapter 12
01:08:45.538 : :Chapter 13
01:11:21.902 : :Chapter 14
01:20:50.804 : :Chapter 15
01:25:51.146 : :Chapter 16
01:29:03.755 : :Chapter 17
01:36:26.739 : :Chapter 18
01:43:23.780 : :Chapter 19
01:46:47.984 : :Chapter 20
01:54:21.229 : :Chapter 21
02:01:07.093 : :Chapter 22
02:10:17.476 : :Chapter 23

To download the file disable ad blocking, and reload the page.

disable adblock How to disable ad blocking?

Download by magnet link 7.76 GB Download Torrent

Login using:

Similar topics



   
Current time is: 23-Oct 07:49 :: All times are UTC ± 0