- -Гранд Тур / The Grand Tour-
Год выпуска: 2017
Страна: Великобритания и США
Жанр: Авто-шоу,документальный, ток-шоу, комедия.
Продолжительность:~01:10:00
Перевод:
Перевод #1: Многоголосый закадровый -AlexFilm
Перевод #2: Многоголосый закадровый - Coldfilm
Перевод #3:Многоголосый закадровый - Gears Media
Перевод #4: Многоголосый закадровый - IdeaFilm
Перевод #5: Многоголосый закадровый -Jaskier

Перевод #6: Многоголосый закадровый - Jetvis Studio & RG.paravozik
Перевод #7: Двухголосый закадровый - KinoGolos
Перевод #8: Многоголосый закадровый -NewStudio 1-2 эпизод
Перевод #9: Двухголосый закадровый -SunshineStudio
Перевод #10: Многоголосый закадровый -BMIRussian 1-3 эпизод
Субтитры: Русские(полные amazon ) и Английские
Режиссер:Брайан Клейн, Фил Чурчуорд, Найджел Симпкисс,
Продюсер: Энди Уилман, Алекс Рентон, Грант Уордроп,
Композитор: Пол Леонард-Морган
Художник: Джонатан Пол Грин, Джеймс Роуэлл, Саймон Киммел
Монтаж: Ник Брэдфорд
В ролях: Ричард Хаммонд / Richard Hammond (играет самого себя ), Джереми Кларксон / Jeremy Clarkson (играет самого себя ), Джеймс Мэй / James May (играет самого себя -)
Описание: Автомобильное телешоу, созданное бывшими ведущими Топ гир — Джереми Кларксоном, Ричардом Хаммондом и Джеймсом Мэйем.-- --Качество: WEB-DLRip
Формат: MKV
Видео кодек:AVC
Аудио кодеk: AC3 ,E-AC3
Видео: AVC, 1920x1080, 23.976 fps, ~11500 kbps avg, ~0.265 bit/pixel
Аудио:
Аудио #1:48 kHz, AC3 Dolby Digital, 3/2 (L,C,R,l,r) + LFE ch, ~384.00 kbps - AlexFilm
Аудио #2:48 kHz, AC3 Dolby Digital , 2/0 (L,R) ch, ~192 kbps - Coldfilm
Аудио #3:48 kHz, AC3 Dolby Digital , 2/0 (L,R) ch, ~384 kbps -Gears Media
Аудио #4:48 kHz, AC3 Dolby Digital, 3/2 (L,C,R,l,r) + LFE ch, ~384.00 kbps - IdeaFilm
Аудио #5:48 kHz, AC3 Dolby Digital, 3/2 (L,C,R,l,r) + LFE ch, ~384.00 kbps -Jaskier
Аудио #6:48 kHz, AC3 Dolby Digital , 2/0 (L,R) ch, ~192 kbps -Jetvis Studio & RG.paravozik
Аудио #7:48 kHz, AC3 Dolby Digital , 2/0 (L,R) ch, ~224 kbps - KinoGolos
Аудио #8:48 kHz, AC3 Dolby Digital, 3/2 (L,C,R,l,r) + LFE ch, ~384.00 kbps -NewStudio 1-2 эпизод
Аудио #9:48 kHz, AC3 Dolby Digital , 2/0 (L,R) ch, ~192 kbps - SunshineStudio
Аудио #10:48 kHz, AC3 Dolby Digital , 2/0 (L,R) ch, ~192 kbps - BMIRussian
Аудио #10:48 kHz,E-АС3 Dolby Digital Plus, 3/2 (L,C,R,l,r) + LFE ch, ~640.00 kbps -Original
Присутствует Навигация по главам

Дополнительная информация об переводах

Озвучка:AlexFilm
Перевод: Константин Кривоногов
Монтаж и сведение звука: Алексей Фокин
Роли озвучивали:Андрей Стакионис, Константин ,Погодаев, Дмитрий, Лунёв,Рустам Шайхиев-Озвучка: Jetvis Studio & RG.paravozik
Перевод: doc_ravik
Роли озвучивали: Иван Назаров, Сергей Битюцкий, Михаил Вельмискин, Никита Пугач-Озвучка: Jaskier
Роли озвучивали: Михаил Кшиштовский,Станислав Концевич и другие-Озвучка: NewStudio
Перевод: Григорий Сенин
Роли озвучивали: Александр Новиков и другие

МедиаИнфо

Общее
Уникальный идентификатор                 : 172724234689680818579299717944574533966 (0x81F17A421833176CA3D294BD7598E14E)
Полное имя                               : I:\GT s02\1.mkv
Формат                                   : Matroska
Версия формата                           : Version 2
Размер файла                             : 7,37 Гбайт
Продолжительность                        : 1 ч. 10 м.
Режим общего битрейта                    : Переменный
Общий поток                              : 15,1 Мбит/сек
Дата кодирования                         : UTC 2018-01-10 18:30:23
Программа кодирования                    : mkvmerge v7.8.0 ('River Man') 32bit built on Apr  3 2015 12:11:22
Библиотека кодирования                   : libebml v1.3.1 + libmatroska v1.4.2
Видео
Идентификатор                            : 1
Формат                                   : AVC
Формат/Информация                        : Advanced Video Codec
Профиль формата                          : High@L4
Параметр CABAC формата                   : Да
Параметр ReFrames формата                : 4 кадра
Идентификатор кодека                     : V_MPEG4/ISO/AVC
Продолжительность                        : 1 ч. 10 м.
Вид битрейта                             : Переменный
Битрейт                                  : 11,2 Мбит/сек
Максимальный битрейт                     : 15,0 Мбит/сек
Ширина                                   : 1920 пикселей
Высота                                   : 1080 пикселей
Соотношение сторон                       : 16:9
Режим частоты кадров                     : Постоянный
Частота кадров                           : 25,000 кадров/сек
Цветовое пространство                    : YUV
Субдискретизация насыщенности            : 4:2:0
Битовая глубина                          : 8 бит
Тип развёртки                            : Прогрессивная
Бит/(Пиксели*Кадры)                      : 0.216
Размер потока                            : 5,48 Гбайт (74%)
Заголовок                                : S.c.a.r.a.b.e.y
Default                                  : Да
Forced                                   : Нет
Цветовой диапазон                        : Limited
Основные цвета                           : BT.709
Характеристики трансфера                 : BT.709
Коэффициенты матрицы                     : BT.709
Аудио #1
Идентификатор                            : 2
Формат                                   : AC-3
Формат/Информация                        : Audio Coding 3
Расширение режима                        : CM (complete main)
Параметр Endianness формата              : Big
Идентификатор кодека                     : A_AC3
Продолжительность                        : 1 ч. 10 м.
Вид битрейта                             : Постоянный
Битрейт                                  : 384 Кбит/сек
Каналы                                   : 6 каналов
Расположение каналов                     : Front: L C R, Side: L R, LFE
Частота                                  : 48,0 КГц
Частота кадров                           : 31,250 кадров/сек (1536 spf)
Битовая глубина                          : 16 бит
Метод сжатия                             : С потерями
Размер потока                            : 193 Мбайт (3%)
Заголовок                                : AlexFilm
Язык                                     : Russian
Default                                  : Да
Forced                                   : Нет
Аудио #2
Идентификатор                            : 3
Формат                                   : AC-3
Формат/Информация                        : Audio Coding 3
Расширение режима                        : CM (complete main)
Параметр Endianness формата              : Big
Идентификатор кодека                     : A_AC3
Продолжительность                        : 1 ч. 10 м.
Вид битрейта                             : Постоянный
Битрейт                                  : 192 Кбит/сек
Каналы                                   : 2 канала
Расположение каналов                     : Front: L R
Частота                                  : 48,0 КГц
Частота кадров                           : 31,250 кадров/сек (1536 spf)
Битовая глубина                          : 16 бит
Метод сжатия                             : С потерями
Размер потока                            : 96,3 Мбайт (1%)
Заголовок                                : ColdFilm
Язык                                     : Russian
Default                                  : Нет
Forced                                   : Нет
Аудио #3
Идентификатор                            : 4
Формат                                   : AC-3
Формат/Информация                        : Audio Coding 3
Расширение режима                        : CM (complete main)
Параметр Endianness формата              : Big
Идентификатор кодека                     : A_AC3
Продолжительность                        : 1 ч. 10 м.
Вид битрейта                             : Постоянный
Битрейт                                  : 384 Кбит/сек
Каналы                                   : 2 канала
Расположение каналов                     : Front: L R
Частота                                  : 48,0 КГц
Частота кадров                           : 31,250 кадров/сек (1536 spf)
Битовая глубина                          : 16 бит
Метод сжатия                             : С потерями
Размер потока                            : 193 Мбайт (3%)
Заголовок                                : Gears media
Язык                                     : Russian
Default                                  : Нет
Forced                                   : Нет
Аудио #4
Идентификатор                            : 5
Формат                                   : AC-3
Формат/Информация                        : Audio Coding 3
Расширение режима                        : CM (complete main)
Параметр Endianness формата              : Big
Идентификатор кодека                     : A_AC3
Продолжительность                        : 1 ч. 10 м.
Вид битрейта                             : Постоянный
Битрейт                                  : 384 Кбит/сек
Каналы                                   : 6 каналов
Расположение каналов                     : Front: L C R, Side: L R, LFE
Частота                                  : 48,0 КГц
Частота кадров                           : 31,250 кадров/сек (1536 spf)
Битовая глубина                          : 16 бит
Метод сжатия                             : С потерями
Размер потока                            : 193 Мбайт (3%)
Заголовок                                : IdeaFilm
Язык                                     : Russian
Default                                  : Нет
Forced                                   : Нет
Аудио #5
Идентификатор                            : 6
Формат                                   : AC-3
Формат/Информация                        : Audio Coding 3
Расширение режима                        : CM (complete main)
Параметр Endianness формата              : Big
Идентификатор кодека                     : A_AC3
Продолжительность                        : 1 ч. 10 м.
Вид битрейта                             : Постоянный
Битрейт                                  : 384 Кбит/сек
Каналы                                   : 6 каналов
Расположение каналов                     : Front: L C R, Side: L R, LFE
Частота                                  : 48,0 КГц
Частота кадров                           : 31,250 кадров/сек (1536 spf)
Битовая глубина                          : 16 бит
Метод сжатия                             : С потерями
Размер потока                            : 193 Мбайт (3%)
Заголовок                                : Jaskier
Язык                                     : Russian
Default                                  : Нет
Forced                                   : Нет
Аудио #6
Идентификатор                            : 7
Формат                                   : AC-3
Формат/Информация                        : Audio Coding 3
Расширение режима                        : CM (complete main)
Параметр Endianness формата              : Big
Идентификатор кодека                     : A_AC3
Продолжительность                        : 1 ч. 10 м.
Вид битрейта                             : Постоянный
Битрейт                                  : 192 Кбит/сек
Каналы                                   : 2 канала
Расположение каналов                     : Front: L R
Частота                                  : 48,0 КГц
Частота кадров                           : 31,250 кадров/сек (1536 spf)
Битовая глубина                          : 16 бит
Метод сжатия                             : С потерями
Размер потока                            : 96,3 Мбайт (1%)
Заголовок                                : Jetvis
Язык                                     : Russian
Default                                  : Нет
Forced                                   : Нет
Аудио #7
Идентификатор                            : 8
Формат                                   : AC-3
Формат/Информация                        : Audio Coding 3
Расширение режима                        : CM (complete main)
Параметр Endianness формата              : Big
Идентификатор кодека                     : A_AC3
Продолжительность                        : 1 ч. 10 м.
Вид битрейта                             : Постоянный
Битрейт                                  : 224 Кбит/сек
Каналы                                   : 2 канала
Расположение каналов                     : Front: L R
Частота                                  : 48,0 КГц
Частота кадров                           : 31,250 кадров/сек (1536 spf)
Битовая глубина                          : 16 бит
Метод сжатия                             : С потерями
Размер потока                            : 112 Мбайт (1%)
Заголовок                                : KinoGolos
Язык                                     : Russian
Default                                  : Нет
Forced                                   : Нет
Аудио #8
Идентификатор                            : 9
Формат                                   : AC-3
Формат/Информация                        : Audio Coding 3
Расширение режима                        : CM (complete main)
Параметр Endianness формата              : Big
Идентификатор кодека                     : A_AC3
Продолжительность                        : 1 ч. 10 м.
Вид битрейта                             : Постоянный
Битрейт                                  : 384 Кбит/сек
Каналы                                   : 6 каналов
Расположение каналов                     : Front: L C R, Side: L R, LFE
Частота                                  : 48,0 КГц
Частота кадров                           : 31,250 кадров/сек (1536 spf)
Битовая глубина                          : 16 бит
Метод сжатия                             : С потерями
Размер потока                            : 193 Мбайт (3%)
Заголовок                                : NewStudio
Язык                                     : Russian
Default                                  : Нет
Forced                                   : Нет
Аудио #9
Идентификатор                            : 10
Формат                                   : AC-3
Формат/Информация                        : Audio Coding 3
Расширение режима                        : CM (complete main)
Параметр Endianness формата              : Big
Идентификатор кодека                     : A_AC3
Продолжительность                        : 1 ч. 10 м.
Вид битрейта                             : Постоянный
Битрейт                                  : 192 Кбит/сек
Каналы                                   : 2 канала
Расположение каналов                     : Front: L R
Частота                                  : 48,0 КГц
Частота кадров                           : 31,250 кадров/сек (1536 spf)
Битовая глубина                          : 16 бит
Метод сжатия                             : С потерями
Размер потока                            : 96,3 Мбайт (1%)
Заголовок                                : Sunshine
Язык                                     : Russian
Default                                  : Нет
Forced                                   : Нет
Аудио #10
Идентификатор                            : 11
Формат                                   : AC-3
Формат/Информация                        : Audio Coding 3
Расширение режима                        : CM (complete main)
Параметр Endianness формата              : Big
Идентификатор кодека                     : A_AC3
Продолжительность                        : 1 ч. 10 м.
Вид битрейта                             : Постоянный
Битрейт                                  : 192 Кбит/сек
Каналы                                   : 2 канала
Расположение каналов                     : Front: L R
Частота                                  : 48,0 КГц
Частота кадров                           : 31,250 кадров/сек (1536 spf)
Битовая глубина                          : 16 бит
Метод сжатия                             : С потерями
Размер потока                            : 96,3 Мбайт (1%)
Заголовок                                : BMIRussian
Язык                                     : Russian
Default                                  : Нет
Forced                                   : Нет
Аудио #11
Идентификатор                            : 12
Формат                                   : E-AC-3
Формат/Информация                        : Enhanced Audio Coding 3
Параметр Endianness формата              : Big
Идентификатор кодека                     : A_EAC3
Продолжительность                        : 1 ч. 10 м.
Вид битрейта                             : Постоянный
Битрейт                                  : 640 Кбит/сек
Каналы                                   : 6 каналов
Расположение каналов                     : Front: L C R, Side: L R, LFE
Частота                                  : 48,0 КГц
Частота кадров                           : 187,500 кадров/сек (256 spf)
Метод сжатия                             : С потерями
Размер потока                            : 321 Мбайт (4%)
Язык                                     : English
Default                                  : Нет
Forced                                   : Нет
Текст #1
Идентификатор                            : 13
Формат                                   : UTF-8
Идентификатор кодека                     : S_TEXT/UTF8
Идентификатор кодека/Информация          : UTF-8 Plain Text
Заголовок                                : Eng
Язык                                     : English
Default                                  : Нет
Forced                                   : Нет
Текст #2
Идентификатор                            : 14
Формат                                   : ASS
Идентификатор кодека                     : S_TEXT/ASS
Идентификатор кодека/Информация          : Advanced Sub Station Alpha
Метод сжатия                             : Без потерь
Заголовок                                : Rus
Язык                                     : Russian
Default                                  : Да
Forced                                   : Нет
Меню
00:00:00.000                             : en:Amazon Originals / :Настоящая еда мужчин
00:00:55.000                             : ru:в  шоу
00:01:42.000                             : ru:Нарезка  второго сезона
00:04:55.000                             : ru:Прошлое, настоящее или будущее
00:06:06.000                             : ru:Понедельник
00:16:13.000                             : ru:Время для Разговорной улицы
00:22:24.000                             : ru:Обеднные гонки на офисной парковке
00:24:57.200                             : ru:Вторник
00:33:45.320                             : ru:Среда
00:35:04.521                             : ru:Четверг
00:39:45.287                             : ru:Новая рубрика
00:54:26.186                             : ru:Вечер Четверга
00:56:03.560                             : ru:Суббота
00:59:08.002                             : :Изучение трассы
01:01:06.601                             : ru:Заезды на время
01:05:38.392                             : ru:Катострофа будущего
01:06:56.151                             : ru:Результаты гонки
01:09:25.609                             : ru:Финальные титры

Скриншоты


To download the file disable ad blocking, and reload the page.

disable adblock How to disable ad blocking?

Download by magnet link 27.48 GB Download Torrent

Login using:

Загрузка...

Similar topics



   
Current time is: 16-Dec 07:25 :: All times are UTC + 3