Vincent Liben / Vincent Liben
Жанр: French chanson, pop-rock
Носитель: CD
Страна-производитель диска (релиза): Франция
Год издания: 2011
Издатель (лейбл): Play On / Jo & Co ‎
Номер по каталогу: 312.A021.022
Страна исполнителя (группы): Бельгия
Аудиокодек: FLAC (*.flac)
Тип рипа: tracks+.cue
Битрейт аудио: lossless
Продолжительность: 00:39:52
Источник (релизер): FordEscort
Наличие сканов в содержимом раздачи: нет
Треклист:
01. Mademoiselle Liberté [03:44]
02. Puerto Loco [03:28]
03. 30 décembre [03:47]
04. Le soleil et la mer [03:40]
05. Camélia [04:01]
06. La fille du canal [03:46]
07. La condition de l'allumette [03:54]
08. Trafalgar Square [03:54]
09. Bille en tête [02:46]
10. Le joli mai [04:00]
11. Wladimir [02:32]

Лог создания рипа

Exact Audio Copy V1.3 from 2. September 2016
EAC extraction logfile from 18. December 2016, 15:26
Vincent Liben / Vincent Liben
Used drive : TSSTcorpCDDVDW SN-208AB Adapter: 1 ID: 0
Read mode : SecureUtilize accurate stream : YesDefeat audio cache : YesMake use of C2 pointers : No
Read offset correction : 6Overread into Lead-In and Lead-Out : NoFill up missing offset samples with silence : YesDelete leading and trailing silent blocks : NoNull samples used in CRC calculations : YesUsed interface : Native Win32 interface for Win NT & 2000Gap handling : Appended to previous track
Used output format : User Defined EncoderSelected bitrate : 1024 kBit/sQuality : HighAdd ID3 tag : NoCommand line compressor : C:\Program Files\Exact Audio Copy\FLAC\FLAC.EXEAdditional command line options : -8 -V -T "ARTIST=%artist%" -T "TITLE=%title%" -T "ALBUM=%albumtitle%" -T "DATE=%year%" -T "TRACKNUMBER=%tracknr%" -T "GENRE=%genre%" -T "PERFORMER=%albuminterpret%" -T "COMPOSER=%composer%" %haslyrics%--tag-from-file=LYRICS="%lyricsfile%"%haslyrics% -T "ALBUMARTIST=%albumartist%" -T "DISCNUMBER=%cdnumber%" -T "TOTALDISCS=%totalcds%" -T "TOTALTRACKS=%numtracks%" -T "COMMENT=%comment%" %source% -o %dest%
TOC of the extracted CD
Track | Start | Length | Start sector | End sector --------------------------------------------------------- 1 | 0:00.00 | 3:44.12 | 0 | 16811 2 | 3:44.12 | 3:28.32 | 16812 | 32443 3 | 7:12.44 | 3:47.73 | 32444 | 49541 4 | 11:00.42 | 3:40.25 | 49542 | 66066 5 | 14:40.67 | 4:01.17 | 66067 | 84158 6 | 18:42.09 | 3:46.43 | 84159 | 101151 7 | 22:28.52 | 3:54.19 | 101152 | 118720 8 | 26:22.71 | 3:54.32 | 118721 | 136302 9 | 30:17.28 | 2:46.36 | 136303 | 148788 10 | 33:03.64 | 4:00.48 | 148789 | 166836 11 | 37:04.37 | 2:32.26 | 166837 | 178262
Track 1
Filename H:\Rip\pth\Vincent Liben - Vincent Liben (2011)[FLAC]\01 - Mademoiselle Liberté.wav
Pre-gap length 0:00:02.00
Peak level 100.0 % Extraction speed 2.2 X Track quality 100.0 % Test CRC FDB5BB6C Copy CRC FDB5BB6C Accurately ripped (confidence 1) [7AD7D8C0] (AR v2) Copy OK
Track 2
Filename H:\Rip\pth\Vincent Liben - Vincent Liben (2011)[FLAC]\02 - Puerto Loco.wav
Peak level 100.0 % Extraction speed 2.4 X Track quality 100.0 % Test CRC F37344CA Copy CRC F37344CA Accurately ripped (confidence 1) [A5E49B1D] (AR v2) Copy OK
Track 3
Filename H:\Rip\pth\Vincent Liben - Vincent Liben (2011)[FLAC]\03 - 30 décembre.wav
Pre-gap length 0:00:02.02
Peak level 89.1 % Extraction speed 2.6 X Track quality 100.0 % Test CRC 9F03F74D Copy CRC 9F03F74D Accurately ripped (confidence 1) [1F5B38B4] (AR v2) Copy OK
Track 4
Filename H:\Rip\pth\Vincent Liben - Vincent Liben (2011)[FLAC]\04 - Le soleil et la mer.wav
Pre-gap length 0:00:01.29
Peak level 100.0 % Extraction speed 2.7 X Track quality 100.0 % Test CRC EF6041E2 Copy CRC EF6041E2 Accurately ripped (confidence 1) [5EBB392C] (AR v2) Copy OK
Track 5
Filename H:\Rip\pth\Vincent Liben - Vincent Liben (2011)[FLAC]\05 - Camélia.wav
Pre-gap length 0:00:02.00
Peak level 99.1 % Extraction speed 3.0 X Track quality 100.0 % Test CRC 67479F07 Copy CRC 67479F07 Accurately ripped (confidence 1) [A3D4A870] (AR v2) Copy OK
Track 6
Filename H:\Rip\pth\Vincent Liben - Vincent Liben (2011)[FLAC]\06 - La fille du canal.wav
Peak level 99.7 % Extraction speed 3.1 X Track quality 100.0 % Test CRC F596C9DB Copy CRC F596C9DB Accurately ripped (confidence 1) [303E735A] (AR v2) Copy OK
Track 7
Filename H:\Rip\pth\Vincent Liben - Vincent Liben (2011)[FLAC]\07 - La condition de l'allumette.wav
Peak level 99.6 % Extraction speed 3.2 X Track quality 100.0 % Test CRC F700DF47 Copy CRC F700DF47 Accurately ripped (confidence 1) [94AFABFD] (AR v2) Copy OK
Track 8
Filename H:\Rip\pth\Vincent Liben - Vincent Liben (2011)[FLAC]\08 - Trafalgar Square.wav
Pre-gap length 0:00:01.12
Peak level 99.9 % Extraction speed 3.4 X Track quality 100.0 % Test CRC EC87A685 Copy CRC EC87A685 Accurately ripped (confidence 1) [7DB93A2E] (AR v2) Copy OK
Track 9
Filename H:\Rip\pth\Vincent Liben - Vincent Liben (2011)[FLAC]\09 - Bille en tête.wav
Peak level 99.1 % Extraction speed 3.3 X Track quality 100.0 % Test CRC BCEC53E7 Copy CRC BCEC53E7 Accurately ripped (confidence 1) [C4F59236] (AR v2) Copy OK
Track 10
Filename H:\Rip\pth\Vincent Liben - Vincent Liben (2011)[FLAC]\10 - Le joli mai.wav
Peak level 99.8 % Extraction speed 3.6 X Track quality 100.0 % Test CRC 053F0344 Copy CRC 053F0344 Accurately ripped (confidence 1) [0D3073A8] (AR v2) Copy OK
Track 11
Filename H:\Rip\pth\Vincent Liben - Vincent Liben (2011)[FLAC]\11 - Wladimir.wav
Pre-gap length 0:00:01.69
Peak level 99.0 % Extraction speed 3.5 X Track quality 100.0 % Test CRC 18FAD269 Copy CRC 18FAD269 Accurately ripped (confidence 1) [D2D9F86E] (AR v2) Copy OK
All tracks accurately ripped
No errors occurred
End of status report
==== Log checksum FE9F389CF21FDA3A11CF6A0CB8340A8203FBD952C94DF14B91F163D8EB2766EB ====

Содержание индексной карты (.cue)

REM GENRE PopREM DATE 2011REM DISCID 9009480BREM COMMENT "ExactAudioCopy v1.3"PERFORMER "Vincent Liben"TITLE "Vincent Liben"REM COMPOSER ""FILE "01 - Mademoiselle Liberté.wav" WAVE  TRACK 01 AUDIO    TITLE "Mademoiselle Liberté"    PERFORMER "Vincent Liben"    REM COMPOSER ""    INDEX 01 00:00:00FILE "02 - Puerto Loco.wav" WAVE  TRACK 02 AUDIO    TITLE "Puerto Loco"    PERFORMER "Vincent Liben"    REM COMPOSER ""    INDEX 01 00:00:00  TRACK 03 AUDIO    TITLE "30 décembre"    PERFORMER "Vincent Liben"    REM COMPOSER ""    INDEX 00 03:26:30FILE "03 - 30 décembre.wav" WAVE    INDEX 01 00:00:00  TRACK 04 AUDIO    TITLE "Le soleil et la mer"    PERFORMER "Vincent Liben"    REM COMPOSER ""    INDEX 00 03:46:44FILE "04 - Le soleil et la mer.wav" WAVE    INDEX 01 00:00:00  TRACK 05 AUDIO    TITLE "Camélia"    PERFORMER "Vincent Liben"    REM COMPOSER ""    INDEX 00 03:38:25FILE "05 - Camélia.wav" WAVE    INDEX 01 00:00:00FILE "06 - La fille du canal.wav" WAVE  TRACK 06 AUDIO    TITLE "La fille du canal"    PERFORMER "Vincent Liben"    REM COMPOSER ""    INDEX 01 00:00:00FILE "07 - La condition de l'allumette.wav" WAVE  TRACK 07 AUDIO    TITLE "La condition de l'allumette"    PERFORMER "Vincent Liben"    REM COMPOSER ""    INDEX 01 00:00:00  TRACK 08 AUDIO    TITLE "Trafalgar Square"    PERFORMER "Vincent Liben"    REM COMPOSER ""    INDEX 00 03:53:07FILE "08 - Trafalgar Square.wav" WAVE    INDEX 01 00:00:00FILE "09 - Bille en tête.wav" WAVE  TRACK 09 AUDIO    TITLE "Bille en tête"    PERFORMER "Vincent Liben"    REM COMPOSER ""    INDEX 01 00:00:00FILE "10 - Le joli mai.wav" WAVE  TRACK 10 AUDIO    TITLE "Le joli mai"    PERFORMER "Vincent Liben"    REM COMPOSER ""    INDEX 01 00:00:00  TRACK 11 AUDIO    TITLE "Wladimir"    PERFORMER "Vincent Liben"    REM COMPOSER ""    INDEX 00 03:58:54FILE "11 - Wladimir.wav" WAVE    INDEX 01 00:00:00

If you like the topic, please click share to help develop our site.

To download the file disable ad blocking, and reload the page.

disable adblock How to disable ad blocking?

Download by magnet link 266 MB Download Torrent

Login using:

Similar topics

(French Pop, Chanson) Vanille - Amazona - 2019, MP3, 320 kbps
 85 MB   0 | 0   10-Jun-19 22:55   1
(French Pop, Chanson) Constance Verluca - Longtemps - 2019, MP3, 320 kbps
 62 MB   0 | 0   06-Apr-19 17:45   2
(French Pop, Chanson) Paule Tremblay - Turbulence - 2019, MP3, 320 kbps
 100 MB   0 | 0   05-Apr-19 00:35   1


   
Current time is: 27-Jun 10:00 :: All times are UTC + 3