Stephen StillsCollection (3 albums, 3 CD) (1970 - 1972)- -Жанр: roots rock, country rock
Страна: USA
Годы выхода альбомов: 1970 - 1972
Аудио кодек: FLAC
Тип рипа: image+.cue
Битрейт аудио: lossless
Сканы: 600dpi, JPG
-Все рипы выполнены с фирменных дисков из личной коллекции, Secure mode, Accurate stream, Test & Copy-

Stephen Stills - 1970 (1995 Atlantic, 7567-82809-2, E.U.)

tracklist


01 - Love The One You.re With
02 - Do For The Others
03 - Church (Part Of Someone)
04 - Old Times Good Times
05 - Go Back Home
06 - Sit Yourself Down
07 - To A Flame
08 - Black Queen
09 - Cherokee
10 - We Are Not Helpless

eac

Exact Audio Copy V1.0 beta 6 from 9. April 2015
EAC extraction logfile from 18. September 2016, 2:00
Stephen Stills / Stephen Stills
Used drive : PLEXTOR DVDR PX-891SA Adapter: 0 ID: 2
Read mode : SecureUtilize accurate stream : YesDefeat audio cache : YesMake use of C2 pointers : No
Read offset correction : 6Overread into Lead-In and Lead-Out : NoFill up missing offset samples with silence : YesDelete leading and trailing silent blocks : NoNull samples used in CRC calculations : YesUsed interface : Installed external ASPI interface
Used output format : User Defined EncoderSelected bitrate : 320 kBit/sQuality : HighAdd ID3 tag : NoCommand line compressor : C:\Program Files\Exact Audio Copy 1.0 b6\Exact Audio Copy\Flac\flac.exeAdditional command line options : -V -8 -T "Date=%year%" -T "Genre=%genre%" %source%
TOC of the extracted CD
Track | Start | Length | Start sector | End sector --------------------------------------------------------- 1 | 0:00.00 | 3:05.52 | 0 | 13926 2 | 3:05.52 | 2:52.50 | 13927 | 26876 3 | 5:58.27 | 4:05.40 | 26877 | 45291 4 | 10:03.67 | 3:39.13 | 45292 | 61729 5 | 13:43.05 | 5:54.35 | 61730 | 88314 6 | 19:37.40 | 3:05.52 | 88315 | 102241 7 | 22:43.17 | 3:08.23 | 102242 | 116364 8 | 25:51.40 | 5:26.32 | 116365 | 140846 9 | 31:17.72 | 3:23.10 | 140847 | 156081 10 | 34:41.07 | 4:20.53 | 156082 | 175634
Range status and errors
Selected range
Filename L:\Lossless Temp\Stephen Stills\1970. Stephen Stills - Stephen Stills (1995 Atlantic, 7567-82809-2, E.U.)\Stephen Stills - Stephen Stills.wav
Peak level 96.8 % Extraction speed 7.3 X Range quality 100.0 % Test CRC F4D09CFD Copy CRC F4D09CFD Copy OK
No errors occurred
AccurateRip summary
Track 1 accurately ripped (confidence 60) [06C6CE05] (AR v2)Track 2 accurately ripped (confidence 61) [F4DC4B74] (AR v2)Track 3 accurately ripped (confidence 60) [2C6C30F8] (AR v2)Track 4 accurately ripped (confidence 59) [AEF6291C] (AR v2)Track 5 accurately ripped (confidence 59) [B41726BF] (AR v2)Track 6 accurately ripped (confidence 60) [4B68155B] (AR v2)Track 7 accurately ripped (confidence 59) [04D7A8A7] (AR v2)Track 8 accurately ripped (confidence 59) [0D58510A] (AR v2)Track 9 accurately ripped (confidence 59) [52262BF4] (AR v2)Track 10 accurately ripped (confidence 59) [111A513E] (AR v2)
All tracks accurately ripped
End of status report
==== Log checksum 31CD50A6A5A76CF65C1E461C4D7D5541FED51338539738E021EC548860AADE20 ====

.cue

REM GENRE BluesREM DATE 1970REM DISCID 8A09250AREM COMMENT "ExactAudioCopy v1.0b6"CATALOG 7567828090208PERFORMER "Stephen Stills"TITLE "Stephen Stills"FILE "Stephen Stills - Stephen Stills.flac" WAVE  TRACK 01 AUDIO    TITLE "Love The One You.re With"    PERFORMER "Stephen Stills"    INDEX 01 00:00:00  TRACK 02 AUDIO    TITLE "Do For The Others"    PERFORMER "Stephen Stills"    INDEX 01 03:05:52  TRACK 03 AUDIO    TITLE "Church (Part Of Someone)"    PERFORMER "Stephen Stills"    INDEX 01 05:58:27  TRACK 04 AUDIO    TITLE "Old Times Good Times"    PERFORMER "Stephen Stills"    INDEX 01 10:03:67  TRACK 05 AUDIO    TITLE "Go Back Home"    PERFORMER "Stephen Stills"    INDEX 01 13:43:05  TRACK 06 AUDIO    TITLE "Sit Yourself Down"    PERFORMER "Stephen Stills"    INDEX 00 19:36:62    INDEX 01 19:37:40  TRACK 07 AUDIO    TITLE "To A Flame"    PERFORMER "Stephen Stills"    INDEX 01 22:43:17  TRACK 08 AUDIO    TITLE "Black Queen"    PERFORMER "Stephen Stills"    INDEX 01 25:51:40  TRACK 09 AUDIO    TITLE "Cherokee"    PERFORMER "Stephen Stills"    INDEX 01 31:17:72  TRACK 10 AUDIO    TITLE "We Are Not Helpless"    PERFORMER "Stephen Stills"    INDEX 01 34:41:07

matrix

-

Stephen Stills 2 - 1971 (1995 Atlantic, 7567-82389-2, Germany)

tracklist


01 - Change Partners
02 - Nothin' To Do But Today
03 - Fishes And Scorpions
04 - Sugar Babe
05 - Know You Got To Run
06 - Open Secret
07 - Relaxing Town
08 - Singin' Call
09 - Ecology Song
10 - Word Game
11 - Marianne
12 - Bluebird Revisited

eac

Exact Audio Copy V1.0 beta 6 from 9. April 2015
EAC extraction logfile from 5. February 2018, 4:02
Stephen Stills / Stephen Stills 2
Used drive : PLEXTOR DVDR PX-891SA Adapter: 0 ID: 2
Read mode : SecureUtilize accurate stream : YesDefeat audio cache : YesMake use of C2 pointers : No
Read offset correction : 6Overread into Lead-In and Lead-Out : NoFill up missing offset samples with silence : YesDelete leading and trailing silent blocks : NoNull samples used in CRC calculations : YesUsed interface : Installed external ASPI interface
Used output format : User Defined EncoderSelected bitrate : 320 kBit/sQuality : HighAdd ID3 tag : NoCommand line compressor : C:\Program Files\Exact Audio Copy 1.b6\Exact Audio Copy\Flac\flac.exeAdditional command line options : -V -8 -T "Genre=%genre%" -T "Artist=%artist%" -T "Title=%title%" -T "Album=%albumtitle%" -T "Date=%year%" -T "Tracknumber=%tracknr%" -T "Comment=%comment%" %source%
TOC of the extracted CD
Track | Start | Length | Start sector | End sector --------------------------------------------------------- 1 | 0:00.00 | 3:16.42 | 0 | 14741 2 | 3:16.42 | 2:43.43 | 14742 | 27009 3 | 6:00.10 | 3:17.12 | 27010 | 41796 4 | 9:17.22 | 4:01.00 | 41797 | 59871 5 | 13:18.22 | 3:50.35 | 59872 | 77156 6 | 17:08.57 | 4:58.73 | 77157 | 99579 7 | 22:07.55 | 2:23.00 | 99580 | 110304 8 | 24:30.55 | 3:00.72 | 110305 | 123876 9 | 27:31.52 | 3:25.05 | 123877 | 139256 10 | 30:56.57 | 4:11.55 | 139257 | 158136 11 | 35:08.37 | 2:29.45 | 158137 | 169356 12 | 37:38.07 | 5:22.70 | 169357 | 193576
Range status and errors
Selected range
Filename L:\Audio\SWF\CD\Stephen Stills\1971. Stephen Stills - 2 (1995 Atlantic, 7567-82389-2, Germany)\Stephen Stills - Stephen Stills 2.wav
Peak level 98.8 % Extraction speed 7.4 X Range quality 100.0 % Test CRC FE29506D Copy CRC FE29506D Copy OK
No errors occurred
AccurateRip summary
Track 1 accurately ripped (confidence 25) [CC7A1707] (AR v2)Track 2 accurately ripped (confidence 25) [FE88CB19] (AR v2)Track 3 accurately ripped (confidence 25) [A1D7593A] (AR v2)Track 4 accurately ripped (confidence 25) [D361E945] (AR v2)Track 5 accurately ripped (confidence 25) [5A0AB8FD] (AR v2)Track 6 accurately ripped (confidence 25) [5B9C6542] (AR v2)Track 7 accurately ripped (confidence 25) [53F06211] (AR v2)Track 8 accurately ripped (confidence 25) [5651A555] (AR v2)Track 9 accurately ripped (confidence 24) [3D8C03D8] (AR v2)Track 10 accurately ripped (confidence 25) [3AC9D2B7] (AR v2)Track 11 accurately ripped (confidence 25) [6D3B997E] (AR v2)Track 12 accurately ripped (confidence 24) [912BB2F6] (AR v2)
All tracks accurately ripped
End of status report
---- CUETools DB Plugin V2.1.6
[CTDB TOCID: 5EMOnOug58tTtlRTmtJGS2sdA_E-] foundSubmit result: 5EMOnOug58tTtlRTmtJGS2sdA_E- has been confirmedTrack | CTDB Status 1 | (72/75) Accurately ripped 2 | (74/75) Accurately ripped 3 | (74/75) Accurately ripped 4 | (74/75) Accurately ripped 5 | (74/75) Accurately ripped 6 | (74/75) Accurately ripped 7 | (74/75) Accurately ripped 8 | (74/75) Accurately ripped 9 | (74/75) Accurately ripped 10 | (72/75) Accurately ripped 11 | (73/75) Accurately ripped 12 | (73/75) Accurately ripped
==== Log checksum F07B6C8AA9ED27A2C1AE4A40FD4286B20DC39F69C97BE24085054A2AFB75AF5E ====

.cue

REM GENRE RockREM DATE 1971REM DISCID 8E0A150CREM COMMENT "ExactAudioCopy v1.0b6"CATALOG 7567823890209PERFORMER "Stephen Stills"TITLE "Stephen Stills 2"FILE "Stephen Stills - Stephen Stills 2.flac" WAVE  TRACK 01 AUDIO    TITLE "Change Partners"    PERFORMER "Stephen Stills"    INDEX 01 00:00:00  TRACK 02 AUDIO    TITLE "Nothin' To Do But Today"    PERFORMER "Stephen Stills"    INDEX 00 03:15:62    INDEX 01 03:16:42  TRACK 03 AUDIO    TITLE "Fishes And Scorpions"    PERFORMER "Stephen Stills"    INDEX 00 05:58:70    INDEX 01 06:00:10  TRACK 04 AUDIO    TITLE "Sugar Babe"    PERFORMER "Stephen Stills"    INDEX 00 09:16:60    INDEX 01 09:17:22  TRACK 05 AUDIO    TITLE "Know You Got To Run"    PERFORMER "Stephen Stills"    INDEX 00 13:17:72    INDEX 01 13:18:22  TRACK 06 AUDIO    TITLE "Open Secret"    PERFORMER "Stephen Stills"    INDEX 00 17:07:45    INDEX 01 17:08:57  TRACK 07 AUDIO    TITLE "Relaxing Town"    PERFORMER "Stephen Stills"    INDEX 00 22:07:12    INDEX 01 22:07:55  TRACK 08 AUDIO    TITLE "Singin' Call"    PERFORMER "Stephen Stills"    INDEX 00 24:30:17    INDEX 01 24:30:55  TRACK 09 AUDIO    TITLE "Ecology Song"    PERFORMER "Stephen Stills"    INDEX 00 27:31:00    INDEX 01 27:31:52  TRACK 10 AUDIO    TITLE "Word Game"    PERFORMER "Stephen Stills"    INDEX 00 30:55:55    INDEX 01 30:56:57  TRACK 11 AUDIO    TITLE "Marianne"    PERFORMER "Stephen Stills"    INDEX 00 35:07:37    INDEX 01 35:08:37  TRACK 12 AUDIO    TITLE "Bluebird Revisited"    PERFORMER "Stephen Stills"    INDEX 00 37:36:25    INDEX 01 37:38:07

matrix

-

Manassas - 1972 (1996 Atlantic, 7567-82808-2, Germany)

tracklist


01 - Song Of Love
02 - Rock And Roll Crazies/Cuban Bluegrass
03 - Jet Set
04 - Anyway
05 - Both Of Us
06 - Fallen Eagle
07 - Jesus Gave Love Away For Free
08 - Colorado
09 - So Begins The Task
10 - Hide It So Deep
11 - Don't Look At My Shadow
12 - It Doesn't Matter
13 - Johnny's Garden
14 - Bound To Fall
15 - How Far
16 - Move Around
17 - The Love Gangster
18 - What To Do
19 - Right Now
20 - The Treasure (Take One)
21 - Blues Man

eac

Exact Audio Copy V1.0 beta 6 from 9. April 2015
EAC extraction logfile from 1. October 2016, 3:54
Stephen Stills / Manassas
Used drive : PLEXTOR DVDR PX-891SA Adapter: 0 ID: 2
Read mode : SecureUtilize accurate stream : YesDefeat audio cache : YesMake use of C2 pointers : No
Read offset correction : 6Overread into Lead-In and Lead-Out : NoFill up missing offset samples with silence : YesDelete leading and trailing silent blocks : NoNull samples used in CRC calculations : YesUsed interface : Installed external ASPI interface
Used output format : User Defined EncoderSelected bitrate : 320 kBit/sQuality : HighAdd ID3 tag : NoCommand line compressor : C:\Program Files\Exact Audio Copy 1.0 b6\Exact Audio Copy\Flac\flac.exeAdditional command line options : -V -8 -T "Date=%year%" -T "Genre=%genre%" %source%
TOC of the extracted CD
Track | Start | Length | Start sector | End sector --------------------------------------------------------- 1 | 0:00.00 | 3:27.28 | 0 | 15552 2 | 3:27.28 | 3:31.70 | 15553 | 31447 3 | 6:59.23 | 4:22.55 | 31448 | 51152 4 | 11:22.03 | 3:19.20 | 51153 | 66097 5 | 14:41.23 | 3:02.12 | 66098 | 79759 6 | 17:43.35 | 2:05.18 | 79760 | 89152 7 | 19:48.53 | 3:00.70 | 89153 | 102722 8 | 22:49.48 | 2:52.47 | 102723 | 115669 9 | 25:42.20 | 3:59.33 | 115670 | 133627 10 | 29:41.53 | 2:46.32 | 133628 | 146109 11 | 32:28.10 | 2:29.68 | 146110 | 157352 12 | 34:58.03 | 2:30.35 | 157353 | 168637 13 | 37:28.38 | 2:45.45 | 168638 | 181057 14 | 40:14.08 | 1:53.22 | 181058 | 189554 15 | 42:07.30 | 2:51.70 | 189555 | 202449 16 | 44:59.25 | 4:15.08 | 202450 | 221582 17 | 49:14.33 | 2:51.45 | 221583 | 234452 18 | 52:06.03 | 4:44.55 | 234453 | 255807 19 | 56:50.58 | 2:58.55 | 255808 | 269212 20 | 59:49.38 | 8:05.00 | 269213 | 305587 21 | 67:54.38 | 4:04.27 | 305588 | 323914
Range status and errors
Selected range
Filename L:\Lossless Temp\Stephen Stills\1972. Stephen Stills - Manassas (1996 Atlantic, 7567-82808-2, Germany)\Stephen Stills - Manassas.wav
Peak level 97.7 % Extraction speed 9.3 X Range quality 100.0 % Test CRC 9B5CDB89 Copy CRC 9B5CDB89 Copy OK
No errors occurred
AccurateRip summary
Track 1 accurately ripped (confidence 59) [6C5DDBD6] (AR v2)Track 2 accurately ripped (confidence 59) [B5A1F546] (AR v2)Track 3 accurately ripped (confidence 59) [4FA1BCE2] (AR v2)Track 4 accurately ripped (confidence 59) [5D5C31E4] (AR v2)Track 5 accurately ripped (confidence 58) [D6D2FB9D] (AR v2)Track 6 accurately ripped (confidence 59) [2C319496] (AR v2)Track 7 accurately ripped (confidence 60) [3E419DC6] (AR v2)Track 8 accurately ripped (confidence 60) [AF3596FF] (AR v2)Track 9 accurately ripped (confidence 60) [31BC81DF] (AR v2)Track 10 accurately ripped (confidence 59) [BEFDADE0] (AR v2)Track 11 accurately ripped (confidence 59) [45492977] (AR v2)Track 12 accurately ripped (confidence 59) [65323920] (AR v2)Track 13 accurately ripped (confidence 60) [22D22863] (AR v2)Track 14 accurately ripped (confidence 60) [9A49BA70] (AR v2)Track 15 accurately ripped (confidence 60) [1EFCF60E] (AR v2)Track 16 accurately ripped (confidence 58) [1157C5E8] (AR v2)Track 17 accurately ripped (confidence 58) [C7A05E1A] (AR v2)Track 18 accurately ripped (confidence 58) [30AE9948] (AR v2)Track 19 accurately ripped (confidence 57) [8E2ADA2E] (AR v2)Track 20 accurately ripped (confidence 57) [C62C7813] (AR v2)Track 21 accurately ripped (confidence 58) [6F4985FA] (AR v2)
All tracks accurately ripped
End of status report
==== Log checksum 34CC3CE2624292D1460A95153F8C4B649E991A33BC526A8B631D3C0D16DCA9BC ====

.cue

REM GENRE RockREM DATE 1972REM DISCID 1310DE15REM COMMENT "ExactAudioCopy v1.0b6"CATALOG 0075678280825PERFORMER "Stephen Stills"TITLE "Manassas"FILE "Stephen Stills - Manassas.flac" WAVE  TRACK 01 AUDIO    TITLE "Song Of Love"    PERFORMER "Stephen Stills"    INDEX 01 00:00:00  TRACK 02 AUDIO    TITLE "Rock And Roll Crazies/Cuban Bluegrass"    PERFORMER "Stephen Stills"    INDEX 01 03:27:28  TRACK 03 AUDIO    TITLE "Jet Set"    PERFORMER "Stephen Stills"    INDEX 01 06:59:23  TRACK 04 AUDIO    TITLE "Anyway"    PERFORMER "Stephen Stills"    INDEX 01 11:22:03  TRACK 05 AUDIO    TITLE "Both Of Us"    PERFORMER "Stephen Stills"    INDEX 01 14:41:23  TRACK 06 AUDIO    TITLE "Fallen Eagle"    PERFORMER "Stephen Stills"    INDEX 01 17:43:35  TRACK 07 AUDIO    TITLE "Jesus Gave Love Away For Free"    PERFORMER "Stephen Stills"    INDEX 01 19:48:53  TRACK 08 AUDIO    TITLE "Colorado"    PERFORMER "Stephen Stills"    INDEX 01 22:49:48  TRACK 09 AUDIO    TITLE "So Begins The Task"    PERFORMER "Stephen Stills"    INDEX 01 25:42:20  TRACK 10 AUDIO    TITLE "Hide It So Deep"    PERFORMER "Stephen Stills"    INDEX 01 29:41:53  TRACK 11 AUDIO    TITLE "Don't Look At My Shadow"    PERFORMER "Stephen Stills"    INDEX 01 32:28:10  TRACK 12 AUDIO    TITLE "It Doesn't Matter"    PERFORMER "Stephen Stills"    INDEX 01 34:58:03  TRACK 13 AUDIO    TITLE "Johnny's Garden"    PERFORMER "Stephen Stills"    INDEX 01 37:28:38  TRACK 14 AUDIO    TITLE "Bound To Fall"    PERFORMER "Stephen Stills"    INDEX 01 40:14:08  TRACK 15 AUDIO    TITLE "How Far"    PERFORMER "Stephen Stills"    INDEX 01 42:07:30  TRACK 16 AUDIO    TITLE "Move Around"    PERFORMER "Stephen Stills"    INDEX 01 44:59:25  TRACK 17 AUDIO    TITLE "The Love Gangster"    PERFORMER "Stephen Stills"    INDEX 01 49:14:33  TRACK 18 AUDIO    TITLE "What To Do"    PERFORMER "Stephen Stills"    INDEX 00 52:04:40    INDEX 01 52:06:03  TRACK 19 AUDIO    TITLE "Right Now"    PERFORMER "Stephen Stills"    INDEX 01 56:50:58  TRACK 20 AUDIO    TITLE "The Treasure (Take One)"    PERFORMER "Stephen Stills"    INDEX 01 59:49:38  TRACK 21 AUDIO    TITLE "Blues Man"    PERFORMER "Stephen Stills"    INDEX 01 67:54:38

matrix

--Торрент обновлен 05-02-2018.-

If you like the topic, please click share to help develop our site.

To download the file disable ad blocking, and reload the page.

disable adblock How to disable ad blocking?

Download by magnet link 1.25 GB Download Torrent

Login using:

Similar topics



   
Current time is: 23-Apr 15:10 :: All times are UTC + 3