Tarbox Ramblers / A Fix Back East
Жанр: Americana
Носитель: CD
Страна-производитель диска (релиза): USA
Год издания: 2004
Издатель (лейбл): Rounder Records
Номер по каталогу: 11661-9061-2
Страна исполнителя (группы): США
Аудиокодек: FLAC (*.flac)
Тип рипа: tracks+.cue
Битрейт аудио: lossless
Продолжительность: 42:31
Источник (релизер): Apollo (prod)
Наличие сканов в содержимом раздачи: нет
Треклист:
1. Already Gone
2. Were You There?
3. Country Blues
4. A Fix Back East
5. No Night There
6. Honey Babe
7. Cloth Of Gold
8. The Shining Sun
9. From The Algiers Station
10. Last Month Of The Year
11. Ashes To Ashes

Лог создания рипа

Exact Audio Copy V0.99 prebeta 4 from 23. January 2008
EAC extraction logfile from 7. October 2009, 16:57
Tarbox Ramblers / A Fix Back East
Used drive : TEAC CD-W54E Adapter: 3 ID: 0
Read mode : SecureUtilize accurate stream : YesDefeat audio cache : YesMake use of C2 pointers : No
Read offset correction : 685Overread into Lead-In and Lead-Out : NoFill up missing offset samples with silence : YesDelete leading and trailing silent blocks : NoNull samples used in CRC calculations : YesUsed interface : Installed external ASPI interfaceGap handling : Appended to previous track
Used output format : User Defined EncoderSelected bitrate : 768 kBit/sQuality : HighAdd ID3 tag : NoCommand line compressor : C:\Program Files\Exact Audio Copy\FLAC\FLAC.EXEAdditional command line options : -8 -V -T "ARTIST=%a" -T "TITLE=%t" -T "ALBUM=%g" -T "DATE=%y" -T "TRACKNUMBER=%n" -T "TOTALTRACKS=%x" -T "GENRE=%m" -T "ALBUM ARTIST=%v" -T "ALBUMARTIST=%v" -T "COMMENT=EAC V0.99 prebeta 4, Secure Mode, Test & Copy, Accurat
TOC of the extracted CD
Track | Start | Length | Start sector | End sector --------------------------------------------------------- 1 | 0:00.00 | 2:58.05 | 0 | 13354 2 | 2:58.05 | 4:18.05 | 13355 | 32709 3 | 7:16.10 | 2:50.37 | 32710 | 45496 4 | 10:06.47 | 4:41.10 | 45497 | 66581 5 | 14:47.57 | 3:32.28 | 66582 | 82509 6 | 18:20.10 | 2:43.15 | 82510 | 94749 7 | 21:03.25 | 5:17.65 | 94750 | 118589 8 | 26:21.15 | 3:10.00 | 118590 | 132839 9 | 29:31.15 | 5:24.35 | 132840 | 157174 10 | 34:55.50 | 2:29.62 | 157175 | 168411 11 | 37:25.37 | 5:09.30 | 168412 | 191616
Track 1
Filename C:\bbb\Tarbox Ramblers - A Fix Back East (2004) [FLAC]\01 - Already Gone.wav
Pre-gap length 0:00:02.00
Peak level 100.0 % Track quality 100.0 % Test CRC E90BCD34 Copy CRC E90BCD34 Accurately ripped (confidence 3) [EEA0946E] Copy OK
Track 2
Filename C:\bbb\Tarbox Ramblers - A Fix Back East (2004) [FLAC]\02 - Were You There .wav
Peak level 100.0 % Track quality 100.0 % Test CRC 2BCC5C52 Copy CRC 2BCC5C52 Accurately ripped (confidence 3) [DB56A6EA] Copy OK
Track 3
Filename C:\bbb\Tarbox Ramblers - A Fix Back East (2004) [FLAC]\03 - Country Blues.wav
Pre-gap length 0:00:00.73
Peak level 100.0 % Track quality 100.0 % Test CRC 3B7973A8 Copy CRC 3B7973A8 Accurately ripped (confidence 3) [FF5F1380] Copy OK
Track 4
Filename C:\bbb\Tarbox Ramblers - A Fix Back East (2004) [FLAC]\04 - A Fix Back East.wav
Pre-gap length 0:00:00.26
Peak level 100.0 % Track quality 100.0 % Test CRC 5C1D1BF5 Copy CRC 5C1D1BF5 Accurately ripped (confidence 3) [5BE50C70] Copy OK
Track 5
Filename C:\bbb\Tarbox Ramblers - A Fix Back East (2004) [FLAC]\05 - No Night There.wav
Pre-gap length 0:00:00.53
Peak level 99.9 % Track quality 100.0 % Test CRC BF8C8F7B Copy CRC BF8C8F7B Accurately ripped (confidence 3) [AC6A9965] Copy OK
Track 6
Filename C:\bbb\Tarbox Ramblers - A Fix Back East (2004) [FLAC]\06 - Honey Babe.wav
Pre-gap length 0:00:00.50
Peak level 100.0 % Track quality 100.0 % Test CRC ED8F0CAC Copy CRC ED8F0CAC Accurately ripped (confidence 3) [76784DD7] Copy OK
Track 7
Filename C:\bbb\Tarbox Ramblers - A Fix Back East (2004) [FLAC]\07 - Cloth of Gold.wav
Peak level 100.0 % Track quality 100.0 % Test CRC 7190F971 Copy CRC 7190F971 Accurately ripped (confidence 3) [72B6A40B] Copy OK
Track 8
Filename C:\bbb\Tarbox Ramblers - A Fix Back East (2004) [FLAC]\08 - The Shining Sun.wav
Peak level 100.0 % Track quality 100.0 % Test CRC A1BEBC77 Copy CRC A1BEBC77 Accurately ripped (confidence 3) [109D4319] Copy OK
Track 9
Filename C:\bbb\Tarbox Ramblers - A Fix Back East (2004) [FLAC]\09 - From the Algiers Station.wav
Pre-gap length 0:00:00.24
Peak level 99.9 % Track quality 100.0 % Test CRC FBC0ADAB Copy CRC FBC0ADAB Accurately ripped (confidence 3) [0172A792] Copy OK
Track 10
Filename C:\bbb\Tarbox Ramblers - A Fix Back East (2004) [FLAC]\10 - Last Month of the Year.wav
Peak level 100.0 % Track quality 100.0 % Test CRC 983355B2 Copy CRC 983355B2 Accurately ripped (confidence 3) [2D8FC0B3] Copy OK
Track 11
Filename C:\bbb\Tarbox Ramblers - A Fix Back East (2004) [FLAC]\11 - Ashes to Ashes.wav
Pre-gap length 0:00:00.06
Peak level 100.0 % Track quality 100.0 % Test CRC 017C1C1B Copy CRC 017C1C1B Accurately ripped (confidence 3) [957C7A6C] Copy OK
All tracks accurately ripped
No errors occurred
End of status report

Содержание индексной карты (.CUE)

REM GENRE Folk-RockREM DATE 2004REM DISCID 9709FA0BREM COMMENT "ExactAudioCopy v0.99pb4"PERFORMER "Tarbox Ramblers"TITLE "A Fix Back East"FILE "01 - Already Gone.wav" WAVE  TRACK 01 AUDIO    TITLE "Already Gone"    PERFORMER "Tarbox Ramblers"    INDEX 01 00:00:00FILE "02 - Were You There .wav" WAVE  TRACK 02 AUDIO    TITLE "Were You There?"    PERFORMER "Tarbox Ramblers"    INDEX 01 00:00:00  TRACK 03 AUDIO    TITLE "Country Blues"    PERFORMER "Tarbox Ramblers"    INDEX 00 04:17:25FILE "03 - Country Blues.wav" WAVE    INDEX 01 00:00:00  TRACK 04 AUDIO    TITLE "A Fix Back East"    PERFORMER "Tarbox Ramblers"    INDEX 00 02:50:17FILE "04 - A Fix Back East.wav" WAVE    INDEX 01 00:00:00  TRACK 05 AUDIO    TITLE "No Night There"    PERFORMER "Tarbox Ramblers"    INDEX 00 04:40:45FILE "05 - No Night There.wav" WAVE    INDEX 01 00:00:00  TRACK 06 AUDIO    TITLE "Honey Babe"    PERFORMER "Tarbox Ramblers"    INDEX 00 03:31:65FILE "06 - Honey Babe.wav" WAVE    INDEX 01 00:00:00FILE "07 - Cloth of Gold.wav" WAVE  TRACK 07 AUDIO    TITLE "Cloth of Gold"    PERFORMER "Tarbox Ramblers"    INDEX 01 00:00:00FILE "08 - The Shining Sun.wav" WAVE  TRACK 08 AUDIO    TITLE "The Shining Sun"    PERFORMER "Tarbox Ramblers"    INDEX 01 00:00:00  TRACK 09 AUDIO    TITLE "From the Algiers Station"    PERFORMER "Tarbox Ramblers"    INDEX 00 03:09:57FILE "09 - From the Algiers Station.wav" WAVE    INDEX 01 00:00:00FILE "10 - Last Month of the Year.wav" WAVE  TRACK 10 AUDIO    TITLE "Last Month of the Year"    PERFORMER "Tarbox Ramblers"    INDEX 01 00:00:00  TRACK 11 AUDIO    TITLE "Ashes to Ashes"    PERFORMER "Tarbox Ramblers"    INDEX 00 02:29:57FILE "11 - Ashes to Ashes.wav" WAVE    INDEX 01 00:00:00

Лог проверки качества

PERFORMER: auCDtect Task Manager, ver. 1.6.0 RC1 build 1.6.0.1Copyright (c) 2008-2010 y-soft. All rights reservedhttp://y-soft.org
ANALYZER: auCDtect: CD records authenticity detector, version 0.8.2Copyright (c) 2004 Oleg Berngardt. All rights reserved.Copyright (c) 2004 Alexander Djourik. All rights reserved.
FILE: 11 - Ashes to Ashes.flac Size: 25477426 Hash: 882E2D9EB8C3C6BB890EAB0539B2C807 Accuracy: -m0 Conclusion: CDDA 100% Signature: 9A94C3A4E7E5E84C32892320F8EBFF6C4CD8A18CFILE: 10 - Last Month of the Year.flac Size: 16169186 Hash: 8847B6905F7AB87FF9AE2E01028A0026 Accuracy: -m0 Conclusion: CDDA 100% Signature: 990B65D7FE9C3A32106FE8F0D856EBE2D0E8058BFILE: 09 - From the Algiers Station.flac Size: 32481698 Hash: 18645D5ACF121B3BA394C86439C3F2C2 Accuracy: -m0 Conclusion: CDDA 100% Signature: B626F09D066D7A35EDFFE26A4FCEB0B966B51CDEFILE: 08 - The Shining Sun.flac Size: 22299249 Hash: 824AE6A3B43EDBE87ED1CF5F20FD9B95 Accuracy: -m0 Conclusion: CDDA 100% Signature: E4368F7C9925769430D1F7FB9FE48E5E3D48BA4EFILE: 07 - Cloth of Gold.flac Size: 38522791 Hash: 63AB5D5B9ABAFE670937772515958CC9 Accuracy: -m0 Conclusion: CDDA 100% Signature: DED7B04D1A42C0BA4A47DA07A540077D03067031FILE: 06 - Honey Babe.flac Size: 16814968 Hash: 1B9967EBC9DBAF0603E8B444B4B38C6E Accuracy: -m0 Conclusion: CDDA 100% Signature: 9796F0F6BE1A838C0CDBEE32D857E3775E36F3D9FILE: 05 - No Night There.flac Size: 24587924 Hash: 702BF7738B42B708E2293F2C72ABD234 Accuracy: -m0 Conclusion: CDDA 100% Signature: 920860445DC9DFE7307F3B81FB8B408165F44502FILE: 04 - A Fix Back East.flac Size: 26239001 Hash: 1AEBBAF3D4B2B8B51F1FC4460987784E Accuracy: -m0 Conclusion: CDDA 100% Signature: 5ADFDECB0A27C5B89A858ED92AB62F67B77CC085FILE: 03 - Country Blues.flac Size: 19884890 Hash: C793994AD963CEEDC0B7901217C6B170 Accuracy: -m0 Conclusion: CDDA 100% Signature: 50B17F5751943FE8B7089C551E58CDDCA0C2C338FILE: 02 - Were You There.flac Size: 26918980 Hash: 3B44A0A2ECF9A6BCDEAA37C340865C29 Accuracy: -m0 Conclusion: CDDA 100% Signature: 963A685AC93CF7F8D7D0142C15AC6E281DBE3D62FILE: 01 - Already Gone.flac Size: 20650182 Hash: 41A4E187AB573DD42511F1601082A4C5 Accuracy: -m0 Conclusion: CDDA 99% Signature: 6C8B59C3C9541D6B55E5C5C76AB2AE1D817C3002

If you like the topic, please click share to help develop our site.

To download the file disable ad blocking, and reload the page.

disable adblock How to disable ad blocking?

Download by magnet link 258 MB Download Torrent

Login using:

Similar topics

(Nordic Ritual Folk, Shamanic) Heilung - LIFA - 2017, MP3, 320 kbps
 178 MB   0 | 0   11-Nov-17 21:25   423
(Folk) André Hazes Jr. - Anders - 2018, MP3, 320 kbps
 93 MB   0 | 0   05-Nov-18 22:15   172
(Folk) Jeff Tweedy - WARM - 2018, MP3, 320 kbps
 92 MB   0 | 0   02-Dec-18 15:10   137
(Nordic Ritual Folk, Shamanic) Heilung - Ofnir - 2015, MP3, 320 kbps
 167 MB   0 | 0   11-May-17 22:11   118


   
Current time is: 27-Jun 09:58 :: All times are UTC + 3