Prayer / Silent Soldiers- Жанр: Melodic Rock
Носитель: CD
Страна-производитель диска (релиза): Россия
Год издания: 2018
Издатель (лейбл): Escape Music Ltd. [ESM313]
Страна исполнителя (группы): Finland
Аудиокодек: FLAC (*.flac)
Тип рипа: image+.cue
Битрейт аудио: lossless
Продолжительность: 57:34
Источник (релизер): rd
Наличие сканов в содержимом раздачи: да
Треклист:
01. Silent Treatment
02. Rock and A Hard Place
03. Fires Of The Heart
04. Feel Like A Prisoner
05. Ten Days Of Hell
06. Dead Dog
07. Ghost Train
08. Devil's Daughter
09. King Of The Hill
10. Get Me Out Of Here
11. No Giver, All Taker
12. Mystery Island

Лог создания рипа

Exact Audio Copy V1.1 from 23. June 2015
EAC extraction logfile from 3. February 2018, 7:43
Prayer / Silent Soldiers
Used drive : TSSTcorpDVDWBD SH-B123L Adapter: 0 ID: 4
Read mode : SecureUtilize accurate stream : YesDefeat audio cache : YesMake use of C2 pointers : No
Read offset correction : 6Overread into Lead-In and Lead-Out : NoFill up missing offset samples with silence : YesDelete leading and trailing silent blocks : NoNull samples used in CRC calculations : YesUsed interface : Installed external ASPI interface
Used output format : User Defined EncoderSelected bitrate : 768 kBit/sQuality : HighAdd ID3 tag : NoCommand line compressor : C:\Program Files (x86)\Exact Audio Copy\FLAC\FLAC.EXEAdditional command line options : -6 -V -T "ARTIST=%artist%" -T "TITLE=%title%" -T "ALBUM=%albumtitle%" -T "DATE=%year%" -T "TRACKNUMBER=%tracknr%" -T "GENRE=%genre%" -T "COMMENT=%comment%" -T "BAND=%albuminterpret%" -T "ALBUMARTIST=%albuminterpret%" -T "COMPOSER=%composer%" %haslyrics%--tag-from-file=LYRICS="%lyricsfile%"%haslyrics% -T "DISCNUMBER=%cdnumber%" -T "TOTALDISCS=%totalcds%" -T "TOTALTRACKS=%numtracks%" %hascover%--picture="%coverfile%"%hascover% %source% -o %dest%
TOC of the extracted CD
Track | Start | Length | Start sector | End sector --------------------------------------------------------- 1 | 0:00.00 | 3:38.33 | 0 | 16382 2 | 3:38.33 | 3:53.69 | 16383 | 33926 3 | 7:32.27 | 3:47.72 | 33927 | 51023 4 | 11:20.24 | 3:44.06 | 51024 | 67829 5 | 15:04.30 | 3:45.17 | 67830 | 84721 6 | 18:49.47 | 2:58.36 | 84722 | 98107 7 | 21:48.08 | 4:49.03 | 98108 | 119785 8 | 26:37.11 | 4:47.36 | 119786 | 141346 9 | 31:24.47 | 4:27.06 | 141347 | 161377 10 | 35:51.53 | 3:09.51 | 161378 | 175603 11 | 39:01.29 | 4:04.05 | 175604 | 193908 12 | 43:05.34 | 14:29.04 | 193909 | 259087
Range status and errors
Selected range
Filename E:\MUSIC\Prayer - Silent Soldiers.wav
Peak level 96.6 % Extraction speed 3.7 X Range quality 100.0 % Test CRC 66B22B3A Copy CRC 66B22B3A Copy OK
No errors occurred
AccurateRip summary
Track 1 not present in databaseTrack 2 not present in databaseTrack 3 not present in databaseTrack 4 not present in databaseTrack 5 not present in databaseTrack 6 not present in databaseTrack 7 not present in databaseTrack 8 not present in databaseTrack 9 not present in databaseTrack 10 not present in databaseTrack 11 not present in databaseTrack 12 not present in database
None of the tracks are present in the AccurateRip database
End of status report
==== Log checksum 46117224FC6E3F77401E77C98480045ABA8B18906172FD359608FEEE6570AD6D ====

If you like the topic, please click share to help develop our site.

To download the file disable ad blocking, and reload the page.

disable adblock How to disable ad blocking?

Download by magnet link 433 MB Download Torrent

Login using:

Similar topics



   
Current time is: 17-Jun 01:34 :: All times are UTC + 3