Информация о фильме
Название: Парадокс Кловерфилда
Оригинальное название: The Cloverfield Paradox
Год выхода: 2018
Жанр: фантастика, триллер, детектив
Режиссер: Джулиус Она
В ролях: Гугу Эмбата-Ро, Дэвид Ойелоуо, Даниэль Брюль, Крис О’Дауд, Аксель Хенни, Чжан Цзыи, Элизабет Дебики, Роджер Дейвис, Джон Ортис,Джордан Ривера
О фильме:
В то время как земной мир пребывает на грани войны за ресурсы, в космосе группа учёных проводит испытания устройства, которое способно решить проблему энергетического кризиса. Несколько неудачных попыток вводят учёных в отчаяние. Топлива осталось на три запуска, и когда вдруг происходит удачный запуск устройства, радость длится недолго — команде предстоит иметь дело с очень странными явлениями.

Страна: США
Студия: Bad Robot, Paramount Pictures
Продолжительность: 01:42:26
Перевод: Любительский одноголосный, закадровый [BadBajo]
Файл
Кодек: H.264
Качество: WEBRip 720p
Видео: AVC, 1280x532 (2.40:1), 23.976 fps ~ 2655 Kbps
Звук:
AC3, 48 KHz, 6 ch ~ 640 Kb/s (русский)
E-AC3, 48 KHz, 6 ch ~ 448 Kb/s (английский)
Субтитры: английские, немецкие, французские, итальянские, португальские

MI:

Общее
Уникальный идентификатор : 208245576168189117501066829665939900504 (0x9CAAA39B96C4DB1EACF5864995A24858)
Полное имя : Q:TorFthe.cloverfield.paradox.2018.720p.mkv
Формат : Matroska
Версия формата : Version 2
Размер файла : 2,73 Гбайт
Продолжительность : 1 ч. 42 м.
Общий поток : 3820 Кбит/сек
Название фильма : the.cloverfield.paradox_BadBajo
Дата кодирования : UTC 2018-02-06 09:34:00
Программа кодирования : mkvmerge v5.4.0 ('Piper') built on Mar 10 2012 13:34:39
Библиотека кодирования : libebml v1.2.3 + libmatroska v1.3.0
DURATION : 01:41:37.049000000
NUMBER_OF_FRAMES : 1198
NUMBER_OF_BYTES : 29935
_STATISTICS_WRITING_APP : mkvmerge v8.3.0 ('Over the Horizon') 64bit
_STATISTICS_WRITING_DATE_UTC : 2018-02-05 04:55:21
_STATISTICS_TAGS : BPS DURATION NUMBER_OF_FRAMES NUMBER_OF_BYTES
Attachment : Yes
Видео
Идентификатор : 1
Формат : AVC
Формат/Информация : Advanced Video Codec
Профиль формата : [email protected]
Параметр CABAC формата : Да
Параметр ReFrames формата : 5 кадров
Идентификатор кодека : V_MPEG4/ISO/AVC
Продолжительность : 1 ч. 42 м.
Битрейт : 2656 Кбит/сек
Ширина : 1280 пикселей
Высота : 532 пикселя
Соотношение сторон : 2,40:1
Частота кадров : 23,976 кадра/сек
Цветовое пространство : YUV
Субдискретизация насыщенности : 4:2:0
Битовая глубина : 8 бит
Тип развёртки : Прогрессивная
Бит/(Пиксели*Кадры) : 0.163
Размер потока : 1,90 Гбайт (70%)
Заголовок : The.Cloverfield.Paradox.2018.720p
Библиотека кодирования : x264 core 155 r2901 7d0ff22
Настройки программы : cabac=1 / ref=5 / deblock=1:-3:-3 / analyse=0x3:0x113 / me=umh / subme=8 / psy=1 / psy_rd=1.00:0.15 / mixed_ref=1 / me_range=16 / chroma_me=1 / trellis=2 / 8x8dct=1 / cqm=0 / deadzone=21,11 / fast_pskip=0 / chroma_qp_offset=-2 / threads=12 / lookahead_threads=2 / sliced_threads=0 / nr=0 / decimate=1 / interlaced=0 / bluray_compat=0 / constrained_intra=0 / bframes=3 / b_pyramid=2 / b_adapt=2 / b_bias=0 / direct=3 / weightb=1 / open_gop=0 / weightp=2 / keyint=240 / keyint_min=23 / scenecut=40 / intra_refresh=0 / rc_lookahead=50 / rc=crf / mbtree=1 / crf=18.0 / qcomp=0.60 / qpmin=0 / qpmax=69 / qpstep=4 / ip_ratio=1.40 / aq=3:0.80
Язык : English
Default : Да
Forced : Нет
DURATION : 01:42:26.516000000
NUMBER_OF_FRAMES : 147369
NUMBER_OF_BYTES : 2102260974
_STATISTICS_WRITING_APP : mkvmerge v8.3.0 ('Over the Horizon') 64bit
_STATISTICS_WRITING_DATE_UTC : 2018-02-05 04:55:21
_STATISTICS_TAGS : BPS DURATION NUMBER_OF_FRAMES NUMBER_OF_BYTES
Аудио #1
Идентификатор : 2
Формат : AC-3
Формат/Информация : Audio Coding 3
Расширение режима : CM (complete main)
Идентификатор кодека : A_AC3
Продолжительность : 1 ч. 42 м.
Вид битрейта : Постоянный
Битрейт : 640 Кбит/сек
Каналы : 6 каналов
Расположение каналов : Front: L C R, Side: L R, LFE
Частота : 48,0 КГц
Битовая глубина : 16 бит
Метод сжатия : С потерями
Размер потока : 469 Мбайт (17%)
Заголовок : BadBajo
Язык : Russian
Default : Да
Forced : Нет
Аудио #2
Идентификатор : 3
Формат : E-AC-3
Формат/Информация : Audio Coding 3
Идентификатор кодека : A_EAC3
Продолжительность : 1 ч. 42 м.
Вид битрейта : Постоянный
Битрейт : 448 Кбит/сек
Каналы : 6 каналов
Расположение каналов : Front: L C R, Side: L R, LFE
Частота : 48,0 КГц
Метод сжатия : С потерями
Размер потока : 328 Мбайт (12%)
Язык : English
Default : Нет
Forced : Нет
Текст #1
Идентификатор : 4
Формат : UTF-8
Идентификатор кодека : S_TEXT/UTF8
Идентификатор кодека/Информация : UTF-8 Plain Text
Язык : English
Default : Нет
Forced : Нет
Текст #2
Идентификатор : 5
Формат : UTF-8
Идентификатор кодека : S_TEXT/UTF8
Идентификатор кодека/Информация : UTF-8 Plain Text
Заголовок : Brazilian
Язык : Portuguese
Default : Нет
Forced : Нет
Текст #3
Идентификатор : 6
Формат : UTF-8
Идентификатор кодека : S_TEXT/UTF8
Идентификатор кодека/Информация : UTF-8 Plain Text
Язык : French
Default : Нет
Forced : Нет
Текст #4
Идентификатор : 7
Формат : UTF-8
Идентификатор кодека : S_TEXT/UTF8
Идентификатор кодека/Информация : UTF-8 Plain Text
Язык : German
Default : Нет
Forced : Нет
Текст #5
Идентификатор : 8
Формат : UTF-8
Идентификатор кодека : S_TEXT/UTF8
Идентификатор кодека/Информация : UTF-8 Plain Text
Язык : Italian
Default : Нет
Forced : Нет
Семпл

Скриншоты


If you like the topic, please click share to help develop our site.

To download the file disable ad blocking, and reload the page.

disable adblock How to disable ad blocking?

Download by magnet link 2.73 GB Download Torrent

Login using:

Similar topics



   
Current time is: 27-Jun 10:11 :: All times are UTC + 3