Everything Everything | Дискография | Discography- -Год: 2010-2017||Страна: GB||Тип рипа: tracks+.cue
Жанр: Art pop, art rock, indie rock, electronica, experimental pop
Издатель (лейбл): Geffen, Sony RCA||Сканы: нет||Источник: redacted.ch
Программа-конвертер: CueTools||Тексты: вшиты||Аудиокодек: ALAC||Битрейт: lossless-

2010 - Man Alive [JP - VJR-3102]


Продолжительность: 01:04:24
Треклист:
01 MY KZ, UR BF (03:38)
02 QWERTY Finger (03:53)
03 Schoolin' (04:40)
04 Leave the Engine Room (03:09)
05 Final Form (05:29)
06 Photoshop Handsome (03:19)
07 Two for Nero (04:22)
08 Suffragette Suffragette (04:06)
09 Come Alive Diana (04:16)
10 NASA Is on Your Side (05:07)
11 Tin (The Manhole) (04:29)
12 Weights (05:44)
13 Wizard Talk (05:17)
14 Hiawatha Doomed (03:27)
15 Schoolin' (Games Remix) (03:28)

2013 - Arc (Deluxe) [WEB - G 010002859598G]

WEB
Продолжительность: 01:11:21
Треклист:
01 Cough Cough (03:44)
02 Kemosabe (03:46)
03 Torso of the Week (04:34)
04 Duet (03:46)
05 Choice Mountain (03:25)
06 Feet for Hands (03:59)
07 Undrowned (03:01)
08 _Arc_ (01:29)
09 Armourland (03:41)
10 The House Is Dust (03:30)
11 Radiant (03:54)
12 The Peaks (05:27)
13 Don't Try (04:14)
14 Awe / Arc (04:07)
15 No Plan (03:47)
16 Justice (03:08)
17 Duet (Alternative Version) (03:49)
18 Don't Try (Everything Everything Remix) (05:15)
19 Distrikt! (02:45)

2015 - Get to Heaven (Deluxe) [EU - 88875087282]


Продолжительность: 01:07:32
Треклист:
01 To the Blade (04:14)
02 Distant Past (03:42)
03 Get to Heaven (03:44)
04 Regret (03:23)
05 Spring / Sun / Winter / Dread (03:18)
06 The Wheel (Is Turning Now) (05:28)
07 Fortune 500 (04:16)
08 Blast Doors (03:30)
09 Zero Pharaoh (03:39)
10 No Reptiles (04:43)
11 Warm Healer (06:10)
12 We Sleep in Pairs (03:23)
13 Hapsburg Lippp (03:40)
14 President Heartbeat (03:21)
15 Brainchild (03:52)
16 Yuppie Supper (03:34)
17 Only as Good as My God (03:35)

2017 - A Fever Dream [EU - 88985435052]


Продолжительность: 00:46:40
Треклист:
01 Night of the Long Knives (04:39)
02 Can't Do (03:32)
03 Desire (03:26)
04 Big Game (03:48)
05 Good Shot, Good Soldier (04:51)
06 Run the Numbers (03:39)
07 Put Me Together (05:33)
08 A Fever Dream (05:59)
09 Ivory Tower (03:54)
10 New Deep (02:27)
11 White Whale (04:52)
-

Логи, куе

2010 - Man Alive

Лог создания рипа:

Exact Audio Copy V1.1 from 23. June 2015
EAC extraction logfile from 19. June 2017, 16:45
Everything Everything / Man Alive (Japanese Edition)
Used drive : TSSTcorpCDW/DVD TS-L462D Adapter: 1 ID: 0
Read mode : SecureUtilize accurate stream : YesDefeat audio cache : YesMake use of C2 pointers : No
Read offset correction : 6Overread into Lead-In and Lead-Out : NoFill up missing offset samples with silence : YesDelete leading and trailing silent blocks : NoNull samples used in CRC calculations : YesUsed interface : Native Win32 interface for Win NT & 2000Gap handling : Appended to previous track
Used output format : User Defined EncoderSelected bitrate : 1024 kBit/sQuality : HighAdd ID3 tag : NoCommand line compressor : C:\Program Files (x86)\Exact Audio Copy\Flac\flac.exeAdditional command line options : -8 -V -T "artist=%artist%" -T "albumartist=%albumartist%" -T "composer=%albumcomposer%" -T "title=%title%" -T "album=%albumtitle%" -T "date=%year%" -T "tracknumber=%tracknr2%" -T "tracktotal=%numtracks%" -T "discnumber=%cdnumber%" -T "disctotal=%totalcds%" -T "genre=%genre%" -T "description=%comment%" %source%
TOC of the extracted CD
Track | Start | Length | Start sector | End sector --------------------------------------------------------- 1 | 0:00.00 | 3:37.51 | 0 | 16325 2 | 3:37.51 | 3:53.09 | 16326 | 33809 3 | 7:30.60 | 4:40.23 | 33810 | 54832 4 | 12:11.08 | 3:09.17 | 54833 | 69024 5 | 15:20.25 | 5:28.42 | 69025 | 93666 6 | 20:48.67 | 3:19.14 | 93667 | 108605 7 | 24:08.06 | 4:22.32 | 108606 | 128287 8 | 28:30.38 | 4:06.15 | 128288 | 146752 9 | 32:36.53 | 4:15.63 | 146753 | 165940 10 | 36:52.41 | 5:06.55 | 165941 | 188945 11 | 41:59.21 | 4:28.74 | 188946 | 209119 12 | 46:28.20 | 5:44.25 | 209120 | 234944 13 | 52:12.45 | 5:17.01 | 234945 | 258720 14 | 57:29.46 | 3:27.05 | 258721 | 274250 15 | 60:56.51 | 3:28.00 | 274251 | 289850
Track 1
Filename C:\Users\Earl of Windsford\Desktop\Everything Everything - Man Alive (Japanese Edition) [2010]\01 - MY KZ, UR BF.wav
Pre-gap length 0:00:02.00
Peak level 99.9 % Extraction speed 2.6 X Track quality 100.0 % Test CRC 890813A4 Copy CRC 890813A4 Accurately ripped (confidence 2) [4BBA74E7] (AR v2) Copy OK
Track 2
Filename C:\Users\Earl of Windsford\Desktop\Everything Everything - Man Alive (Japanese Edition) [2010]\02 - QWERTY Finger.wav
Peak level 99.9 % Extraction speed 2.9 X Track quality 100.0 % Test CRC 349D962A Copy CRC 349D962A Accurately ripped (confidence 2) [3BB41B7D] (AR v2) Copy OK
Track 3
Filename C:\Users\Earl of Windsford\Desktop\Everything Everything - Man Alive (Japanese Edition) [2010]\03 - Schoolin'.wav
Pre-gap length 0:00:01.20
Peak level 99.9 % Extraction speed 3.2 X Track quality 100.0 % Test CRC 44F3A6F6 Copy CRC 44F3A6F6 Accurately ripped (confidence 2) [9899648E] (AR v2) Copy OK
Track 4
Filename C:\Users\Earl of Windsford\Desktop\Everything Everything - Man Alive (Japanese Edition) [2010]\04 - Leave the Engine Room.wav
Pre-gap length 0:00:01.25
Peak level 99.9 % Extraction speed 2.7 X Track quality 99.9 % Test CRC D24CAC17 Copy CRC D24CAC17 Accurately ripped (confidence 2) [6BECB301] (AR v2) Copy OK
Track 5
Filename C:\Users\Earl of Windsford\Desktop\Everything Everything - Man Alive (Japanese Edition) [2010]\05 - Final Form.wav
Pre-gap length 0:00:01.33
Peak level 99.9 % Extraction speed 3.8 X Track quality 100.0 % Test CRC 436F86FB Copy CRC 436F86FB Accurately ripped (confidence 2) [6283EF9A] (AR v2) Copy OK
Track 6
Filename C:\Users\Earl of Windsford\Desktop\Everything Everything - Man Alive (Japanese Edition) [2010]\06 - Photoshop Handsome.wav
Peak level 99.9 % Extraction speed 3.2 X Track quality 99.9 % Test CRC 797A85C9 Copy CRC 797A85C9 Accurately ripped (confidence 2) [A6807512] (AR v2) Copy OK
Track 7
Filename C:\Users\Earl of Windsford\Desktop\Everything Everything - Man Alive (Japanese Edition) [2010]\07 - Two for Nero.wav
Pre-gap length 0:00:00.52
Peak level 99.9 % Extraction speed 4.1 X Track quality 100.0 % Test CRC C888A984 Copy CRC C888A984 Accurately ripped (confidence 2) [5B6D274B] (AR v2) Copy OK
Track 8
Filename C:\Users\Earl of Windsford\Desktop\Everything Everything - Man Alive (Japanese Edition) [2010]\08 - Suffragette Suffragette.wav
Pre-gap length 0:00:01.01
Peak level 99.9 % Extraction speed 4.3 X Track quality 100.0 % Test CRC DCFFA843 Copy CRC DCFFA843 Accurately ripped (confidence 2) [6B1AA05D] (AR v2) Copy OK
Track 9
Filename C:\Users\Earl of Windsford\Desktop\Everything Everything - Man Alive (Japanese Edition) [2010]\09 - Come Alive Diana.wav
Pre-gap length 0:00:02.22
Peak level 99.9 % Extraction speed 4.6 X Track quality 100.0 % Test CRC DE98106F Copy CRC DE98106F Accurately ripped (confidence 2) [69CFCEA8] (AR v2) Copy OK
Track 10
Filename C:\Users\Earl of Windsford\Desktop\Everything Everything - Man Alive (Japanese Edition) [2010]\10 - NASA Is on Your Side.wav
Pre-gap length 0:00:00.69
Peak level 94.9 % Extraction speed 4.3 X Track quality 99.9 % Test CRC EA2A30F1 Copy CRC EA2A30F1 Accurately ripped (confidence 2) [AF1D237B] (AR v2) Copy OK
Track 11
Filename C:\Users\Earl of Windsford\Desktop\Everything Everything - Man Alive (Japanese Edition) [2010]\11 - Tin (The Manhole).wav
Pre-gap length 0:00:01.46
Peak level 91.2 % Extraction speed 5.0 X Track quality 100.0 % Test CRC 0C4C0330 Copy CRC 0C4C0330 Accurately ripped (confidence 2) [68412144] (AR v2) Copy OK
Track 12
Filename C:\Users\Earl of Windsford\Desktop\Everything Everything - Man Alive (Japanese Edition) [2010]\12 - Weights.wav
Peak level 99.8 % Extraction speed 5.4 X Track quality 100.0 % Test CRC 2601C4AB Copy CRC 2601C4AB Accurately ripped (confidence 2) [6C1B1173] (AR v2) Copy OK
Track 13
Filename C:\Users\Earl of Windsford\Desktop\Everything Everything - Man Alive (Japanese Edition) [2010]\13 - Wizard Talk.wav
Pre-gap length 0:00:04.00
Peak level 100.0 % Extraction speed 5.4 X Track quality 100.0 % Test CRC C9A17EAF Copy CRC C9A17EAF Accurately ripped (confidence 2) [005E7BC8] (AR v2) Copy OK
Track 14
Filename C:\Users\Earl of Windsford\Desktop\Everything Everything - Man Alive (Japanese Edition) [2010]\14 - Hiawatha Doomed.wav
Pre-gap length 0:00:04.00
Peak level 98.6 % Extraction speed 5.3 X Track quality 100.0 % Test CRC 95B6411A Copy CRC 95B6411A Accurately ripped (confidence 2) [674EECF4] (AR v2) Copy OK
Track 15
Filename C:\Users\Earl of Windsford\Desktop\Everything Everything - Man Alive (Japanese Edition) [2010]\15 - Schoolin' (Games Remix).wav
Pre-gap length 0:00:04.00
Peak level 98.8 % Extraction speed 5.3 X Track quality 100.0 % Test CRC A54B3964 Copy CRC A54B3964 Accurately ripped (confidence 2) [5485CC6A] (AR v2) Copy OK
All tracks accurately ripped
No errors occurred
End of status report
---- CUETools DB Plugin V2.1.6
[CTDB TOCID: TM2j_NivO3MnK2fkjFeI.A7F9mY-] foundSubmit result: already submittedTrack | CTDB Status 1 | (3/3) Accurately ripped 2 | (3/3) Accurately ripped 3 | (3/3) Accurately ripped 4 | (3/3) Accurately ripped 5 | (3/3) Accurately ripped 6 | (3/3) Accurately ripped 7 | (3/3) Accurately ripped 8 | (3/3) Accurately ripped 9 | (3/3) Accurately ripped 10 | (3/3) Accurately ripped 11 | (3/3) Accurately ripped 12 | (3/3) Accurately ripped 13 | (3/3) Accurately ripped 14 | (3/3) Accurately ripped 15 | (1/3) Accurately ripped
==== Log checksum 3CDCDC0E5E6749FE14BC2CA0F41604EBBB4E188A49E655F5B14892699B98B574 ====

Содержание индексной карты (.CUE):

REM GENRE "Art Pop"REM DATE 2010REM DISCID BA0F180FPERFORMER "Everything Everything"TITLE "Man Alive"REM DISCNUMBER 1REM TOTALDISCS 1FILE "01 MY KZ, UR BF.m4a" WAVE  TRACK 01 AUDIO    TITLE "MY KZ, UR BF"    PERFORMER "Everything Everything"    INDEX 01 00:00:00FILE "02 QWERTY Finger.m4a" WAVE  TRACK 02 AUDIO    TITLE "QWERTY Finger"    PERFORMER "Everything Everything"    INDEX 01 00:00:00  TRACK 03 AUDIO    TITLE "Schoolin'"    PERFORMER "Everything Everything"    INDEX 00 03:51:64FILE "03 Schoolin'.m4a" WAVE    INDEX 01 00:00:00  TRACK 04 AUDIO    TITLE "Leave the Engine Room"    PERFORMER "Everything Everything"    INDEX 00 04:38:73FILE "04 Leave the Engine Room.m4a" WAVE    INDEX 01 00:00:00  TRACK 05 AUDIO    TITLE "Final Form"    PERFORMER "Everything Everything"    INDEX 00 03:07:59FILE "05 Final Form.m4a" WAVE    INDEX 01 00:00:00FILE "06 Photoshop Handsome.m4a" WAVE  TRACK 06 AUDIO    TITLE "Photoshop Handsome"    PERFORMER "Everything Everything"    INDEX 01 00:00:00  TRACK 07 AUDIO    TITLE "Two for Nero"    PERFORMER "Everything Everything"    INDEX 00 03:18:37FILE "07 Two for Nero.m4a" WAVE    INDEX 01 00:00:00  TRACK 08 AUDIO    TITLE "Suffragette Suffragette"    PERFORMER "Everything Everything"    INDEX 00 04:21:31FILE "08 Suffragette Suffragette.m4a" WAVE    INDEX 01 00:00:00  TRACK 09 AUDIO    TITLE "Come Alive Diana"    PERFORMER "Everything Everything"    INDEX 00 04:03:68FILE "09 Come Alive Diana.m4a" WAVE    INDEX 01 00:00:00  TRACK 10 AUDIO    TITLE "NASA Is on Your Side"    PERFORMER "Everything Everything"    INDEX 00 04:14:69FILE "10 NASA Is on Your Side.m4a" WAVE    INDEX 01 00:00:00  TRACK 11 AUDIO    TITLE "Tin (The Manhole)"    PERFORMER "Everything Everything"    INDEX 00 05:05:09FILE "11 Tin (The Manhole).m4a" WAVE    INDEX 01 00:00:00FILE "12 Weights.m4a" WAVE  TRACK 12 AUDIO    TITLE "Weights"    PERFORMER "Everything Everything"    INDEX 01 00:00:00  TRACK 13 AUDIO    TITLE "Wizard Talk"    PERFORMER "Everything Everything"    INDEX 00 05:40:25FILE "13 Wizard Talk.m4a" WAVE    INDEX 01 00:00:00  TRACK 14 AUDIO    TITLE "Hiawatha Doomed"    PERFORMER "Everything Everything"    INDEX 00 05:13:01FILE "14 Hiawatha Doomed.m4a" WAVE    INDEX 01 00:00:00  TRACK 15 AUDIO    TITLE "Schoolin' (Games Remix)"    PERFORMER "Everything Everything"    INDEX 00 03:23:05FILE "15 Schoolin' (Games Remix).m4a" WAVE    INDEX 01 00:00:00

2013 - Arc (Deluxe)

Лог проверки качества:

AUDIOCHECKER v2.0 beta (build 457) - by Dester - [email protected]~~~~~~~~~~~~~~~~~~~~~~~~~~~~~~~~~~-=== DO NOT EDIT THIS FILE! ===-
Path: ...\Everything Everything - Arc (2013) [Deluxe Scene FLAC]
01 -=- 01 Cough Cough.flac -=- CDDA (100%)02 -=- 02 Kemosabe.flac -=- CDDA (100%)03 -=- 03 Torso of the Week.flac -=- CDDA (100%)04 -=- 04 Duet.flac -=- CDDA (99%)05 -=- 05 Choice Mountain.flac -=- CDDA (100%)06 -=- 06 Feet For Hands.flac -=- CDDA (100%)07 -=- 07 Undrowned.flac -=- CDDA (100%)08 -=- 08 _Arc_.flac -=- CDDA (100%)09 -=- 09 Armourland.flac -=- CDDA (100%)10 -=- 10 The House Is Dust.flac -=- CDDA (100%)11 -=- 11 Radiant.flac -=- CDDA (100%)12 -=- 12 The Peaks.flac -=- CDDA (100%)13 -=- 13 Don't Try.flac -=- CDDA (100%)14 -=- 14 Awe Arc.flac -=- CDDA (100%)15 -=- 15 No Plan.flac -=- CDDA (100%)16 -=- 16 Justice.flac -=- CDDA (100%)17 -=- 17 Duet (Alternative Version).flac -=- CDDA (100%)18 -=- 18 Don't Try (Everything Everything Remix).flac -=- CDDA (100%)19 -=- 19 Distrikt!.flac -=- CDDA (99%)
Summary 99,89% CDDA
72916884

2015 - Get to Heaven (Deluxe)

Лог создания рипа:

Exact Audio Copy V1.1 from 23. June 2015
EAC extraction logfile from 11. August 2015, 12:00
Everything Everything / Get To Heaven
Used drive : ASUS DRW-24B5ST Adapter: 1 ID: 0
Read mode : SecureUtilize accurate stream : YesDefeat audio cache : YesMake use of C2 pointers : No
Read offset correction : 6Overread into Lead-In and Lead-Out : NoFill up missing offset samples with silence : YesDelete leading and trailing silent blocks : NoNull samples used in CRC calculations : YesUsed interface : Native Win32 interface for Win NT & 2000Gap handling : Appended to previous track
Used output format : User Defined EncoderSelected bitrate : 1024 kBit/sQuality : HighAdd ID3 tag : NoCommand line compressor : F:\Program Files (x86)\Exact Audio Copy\Flac\flac.exeAdditional command line options : -8 -V -T "ARTIST=%artist%" -T "TITLE=%title%" -T "ALBUM=%albumtitle%" -T "DATE=%year%" -T "TRACKNUMBER=%tracknr%" -T "GENRE=%genre%" -T "PERFORMER=%albuminterpret%" -T "COMPOSER=%composer%" %haslyrics%--tag-from-file=LYRICS="%lyricsfile%"%haslyrics% -T "ALBUMARTIST=%albumartist%" -T "DISCNUMBER=%cdnumber%" -T "TOTALDISCS=%totalcds%" -T "TOTALTRACKS=%numtracks%" -T "COMMENT=%comment%" %source% -o %dest%
TOC of the extracted CD
Track | Start | Length | Start sector | End sector --------------------------------------------------------- 1 | 0:00.00 | 4:13.74 | 0 | 19048 2 | 4:13.74 | 3:41.52 | 19049 | 35675 3 | 7:55.51 | 3:43.52 | 35676 | 52452 4 | 11:39.28 | 3:22.46 | 52453 | 67648 5 | 15:01.74 | 3:18.16 | 67649 | 82514 6 | 18:20.15 | 5:28.15 | 82515 | 107129 7 | 23:48.30 | 4:16.20 | 107130 | 126349 8 | 28:04.50 | 3:30.17 | 126350 | 142116 9 | 31:34.67 | 3:39.28 | 142117 | 158569 10 | 35:14.20 | 4:42.64 | 158570 | 179783 11 | 39:57.09 | 6:10.13 | 179784 | 207546 12 | 46:07.22 | 3:22.70 | 207547 | 222766 13 | 49:30.17 | 3:39.38 | 222767 | 239229 14 | 53:09.55 | 3:21.37 | 239230 | 254341 15 | 56:31.17 | 3:51.38 | 254342 | 271704 16 | 60:22.55 | 3:33.42 | 271705 | 287721 17 | 63:56.22 | 3:35.14 | 287722 | 303860
Track 1
Filename G:\EAC\Everything Everything - Get To Heaven (Deluxe) (2015) [CD FLAC]\01 - To The Blade.wav
Pre-gap length 0:00:02.00
Peak level 97.9 % Extraction speed 1.6 X Track quality 99.9 % Test CRC A6D03E7C Copy CRC A6D03E7C Track not present in AccurateRip database Copy OK
Track 2
Filename G:\EAC\Everything Everything - Get To Heaven (Deluxe) (2015) [CD FLAC]\02 - Distant Past.wav
Peak level 98.2 % Extraction speed 2.2 X Track quality 100.0 % Test CRC 525B9946 Copy CRC 525B9946 Track not present in AccurateRip database Copy OK
Track 3
Filename G:\EAC\Everything Everything - Get To Heaven (Deluxe) (2015) [CD FLAC]\03 - Get To Heaven.wav
Peak level 100.0 % Extraction speed 2.4 X Track quality 100.0 % Test CRC CA20101C Copy CRC CA20101C Track not present in AccurateRip database Copy OK
Track 4
Filename G:\EAC\Everything Everything - Get To Heaven (Deluxe) (2015) [CD FLAC]\04 - Regret.wav
Peak level 95.6 % Extraction speed 2.5 X Track quality 100.0 % Test CRC 7181692A Copy CRC 7181692A Track not present in AccurateRip database Copy OK
Track 5
Filename G:\EAC\Everything Everything - Get To Heaven (Deluxe) (2015) [CD FLAC]\05 - Spring , Sun , Winter , Dread.wav
Peak level 97.2 % Extraction speed 1.8 X Track quality 99.9 % Test CRC 4FC8819A Copy CRC 4FC8819A Track not present in AccurateRip database Copy OK
Track 6
Filename G:\EAC\Everything Everything - Get To Heaven (Deluxe) (2015) [CD FLAC]\06 - The Wheel (Is Turning Now).wav
Peak level 96.2 % Extraction speed 3.0 X Track quality 100.0 % Test CRC 6AE1AE15 Copy CRC 6AE1AE15 Track not present in AccurateRip database Copy OK
Track 7
Filename G:\EAC\Everything Everything - Get To Heaven (Deluxe) (2015) [CD FLAC]\07 - Fortune 500.wav
Peak level 96.0 % Extraction speed 2.3 X Track quality 99.9 % Test CRC 0DBB9EE5 Copy CRC 0DBB9EE5 Track not present in AccurateRip database Copy OK
Track 8
Filename G:\EAC\Everything Everything - Get To Heaven (Deluxe) (2015) [CD FLAC]\08 - Blast Doors.wav
Peak level 97.5 % Extraction speed 3.2 X Track quality 100.0 % Test CRC 7E67D8ED Copy CRC 7E67D8ED Track not present in AccurateRip database Copy OK
Track 9
Filename G:\EAC\Everything Everything - Get To Heaven (Deluxe) (2015) [CD FLAC]\09 - Zero Pharoah.wav
Peak level 95.7 % Extraction speed 3.3 X Track quality 100.0 % Test CRC 248EB0FF Copy CRC 248EB0FF Track not present in AccurateRip database Copy OK
Track 10
Filename G:\EAC\Everything Everything - Get To Heaven (Deluxe) (2015) [CD FLAC]\10 - No Reptiles.wav
Peak level 96.2 % Extraction speed 2.7 X Track quality 99.9 % Test CRC 993732A0 Copy CRC 993732A0 Track not present in AccurateRip database Copy OK
Track 11
Filename G:\EAC\Everything Everything - Get To Heaven (Deluxe) (2015) [CD FLAC]\11 - Warm Healer.wav
Peak level 96.5 % Extraction speed 3.0 X Track quality 99.9 % Test CRC A1129915 Copy CRC A1129915 Track not present in AccurateRip database Copy OK
Track 12
Filename G:\EAC\Everything Everything - Get To Heaven (Deluxe) (2015) [CD FLAC]\12 - We Sleep In Pairs.wav
Peak level 95.4 % Extraction speed 3.7 X Track quality 100.0 % Test CRC 75638E2B Copy CRC 75638E2B Track not present in AccurateRip database Copy OK
Track 13
Filename G:\EAC\Everything Everything - Get To Heaven (Deluxe) (2015) [CD FLAC]\13 - Hapsburg Lipp.wav
Peak level 95.5 % Extraction speed 3.8 X Track quality 100.0 % Test CRC C66696D3 Copy CRC C66696D3 Track not present in AccurateRip database Copy OK
Track 14
Filename G:\EAC\Everything Everything - Get To Heaven (Deluxe) (2015) [CD FLAC]\14 - President Heartbeat.wav
Peak level 97.2 % Extraction speed 2.6 X Track quality 99.9 % Test CRC A535882F Copy CRC A535882F Track not present in AccurateRip database Copy OK
Track 15
Filename G:\EAC\Everything Everything - Get To Heaven (Deluxe) (2015) [CD FLAC]\15 - Brainchild.wav
Peak level 95.5 % Extraction speed 4.0 X Track quality 100.0 % Test CRC B9172035 Copy CRC B9172035 Track not present in AccurateRip database Copy OK
Track 16
Filename G:\EAC\Everything Everything - Get To Heaven (Deluxe) (2015) [CD FLAC]\16 - Yuppie Supper.wav
Peak level 95.6 % Extraction speed 4.0 X Track quality 100.0 % Test CRC CDD1FE08 Copy CRC CDD1FE08 Track not present in AccurateRip database Copy OK
Track 17
Filename G:\EAC\Everything Everything - Get To Heaven (Deluxe) (2015) [CD FLAC]\17 - Only As Good As My God.wav
Peak level 95.5 % Extraction speed 4.1 X Track quality 100.0 % Test CRC 0DD95E8A Copy CRC 0DD95E8A Track not present in AccurateRip database Copy OK
None of the tracks are present in the AccurateRip database
No errors occurred
End of status report
---- CUETools DB Plugin V2.1.6
[CTDB TOCID: vkHUXQlz1SL8T6ifR.RhRV6bPZg-] foundSubmit result: vkHUXQlz1SL8T6ifR.RhRV6bPZg- has been confirmedTrack | CTDB Status 1 | (3/3) Accurately ripped 2 | (3/3) Accurately ripped 3 | (3/3) Accurately ripped 4 | (3/3) Accurately ripped 5 | (3/3) Accurately ripped 6 | (3/3) Accurately ripped 7 | (3/3) Accurately ripped 8 | (3/3) Accurately ripped 9 | (3/3) Accurately ripped 10 | (3/3) Accurately ripped 11 | (3/3) Accurately ripped 12 | (3/3) Accurately ripped 13 | (3/3) Accurately ripped 14 | (3/3) Accurately ripped 15 | (3/3) Accurately ripped 16 | (3/3) Accurately ripped 17 | (3/3) Accurately ripped
==== Log checksum 2570DB47220D4466DB2B79D38629F8E90430862244B946D35A7BA445F0164593 ====

Содержание индексной карты (.CUE):

REM DATE 2015REM DISCID 000FD311PERFORMER "Everything Everything"TITLE "Get to Heaven (Deluxe)"REM DISCNUMBER 1REM TOTALDISCS 1FILE "01 To the Blade.m4a" WAVE  TRACK 01 AUDIO    TITLE "To the Blade"    PERFORMER "Everything Everything"    INDEX 01 00:00:00FILE "02 Distant Past.m4a" WAVE  TRACK 02 AUDIO    TITLE "Distant Past"    PERFORMER "Everything Everything"    INDEX 01 00:00:00FILE "03 Get to Heaven.m4a" WAVE  TRACK 03 AUDIO    TITLE "Get to Heaven"    PERFORMER "Everything Everything"    INDEX 01 00:00:00FILE "04 Regret.m4a" WAVE  TRACK 04 AUDIO    TITLE "Regret"    PERFORMER "Everything Everything"    INDEX 01 00:00:00FILE "05 Spring _ Sun _ Winter _ Dread.m4a" WAVE  TRACK 05 AUDIO    TITLE "Spring / Sun / Winter / Dread"    PERFORMER "Everything Everything"    INDEX 01 00:00:00FILE "06 The Wheel (Is Turning Now).m4a" WAVE  TRACK 06 AUDIO    TITLE "The Wheel (Is Turning Now)"    PERFORMER "Everything Everything"    INDEX 01 00:00:00FILE "07 Fortune 500.m4a" WAVE  TRACK 07 AUDIO    TITLE "Fortune 500"    PERFORMER "Everything Everything"    INDEX 01 00:00:00FILE "08 Blast Doors.m4a" WAVE  TRACK 08 AUDIO    TITLE "Blast Doors"    PERFORMER "Everything Everything"    INDEX 01 00:00:00FILE "09 Zero Pharaoh.m4a" WAVE  TRACK 09 AUDIO    TITLE "Zero Pharaoh"    PERFORMER "Everything Everything"    INDEX 01 00:00:00FILE "10 No Reptiles.m4a" WAVE  TRACK 10 AUDIO    TITLE "No Reptiles"    PERFORMER "Everything Everything"    INDEX 01 00:00:00FILE "11 Warm Healer.m4a" WAVE  TRACK 11 AUDIO    TITLE "Warm Healer"    PERFORMER "Everything Everything"    INDEX 01 00:00:00FILE "12 We Sleep in Pairs.m4a" WAVE  TRACK 12 AUDIO    TITLE "We Sleep in Pairs"    PERFORMER "Everything Everything"    INDEX 01 00:00:00FILE "13 Hapsburg Lippp.m4a" WAVE  TRACK 13 AUDIO    TITLE "Hapsburg Lippp"    PERFORMER "Everything Everything"    INDEX 01 00:00:00FILE "14 President Heartbeat.m4a" WAVE  TRACK 14 AUDIO    TITLE "President Heartbeat"    PERFORMER "Everything Everything"    INDEX 01 00:00:00FILE "15 Brainchild.m4a" WAVE  TRACK 15 AUDIO    TITLE "Brainchild"    PERFORMER "Everything Everything"    INDEX 01 00:00:00FILE "16 Yuppie Supper.m4a" WAVE  TRACK 16 AUDIO    TITLE "Yuppie Supper"    PERFORMER "Everything Everything"    INDEX 01 00:00:00FILE "17 Only as Good as My God.m4a" WAVE  TRACK 17 AUDIO    TITLE "Only as Good as My God"    PERFORMER "Everything Everything"    INDEX 01 00:00:00

2017 - A Fever Dream

Лог создания рипа:

Exact Audio Copy V1.3 from 2. September 2016
EAC extraction logfile from 18. August 2017, 14:34
Everything Everything / A Fever Dream
Used drive : TSSTcorpCDDVDW SH-224GB Adapter: 1 ID: 1
Read mode : SecureUtilize accurate stream : YesDefeat audio cache : YesMake use of C2 pointers : No
Read offset correction : 6Overread into Lead-In and Lead-Out : NoFill up missing offset samples with silence : YesDelete leading and trailing silent blocks : NoNull samples used in CRC calculations : YesUsed interface : Native Win32 interface for Win NT & 2000Gap handling : Appended to previous track
Used output format : User Defined EncoderSelected bitrate : 896 kBit/sQuality : HighAdd ID3 tag : NoCommand line compressor : C:\Program Files (x86)\Exact Audio Copy\Flac\flac.exeAdditional command line options : -8 -V -T "ARTIST=%artist%" -T "TITLE=%title%" -T "ALBUM=%albumtitle%" -T "DATE=%year%" -T "TRACKNUMBER=%tracknr%" -T "GENRE=%genre%" -T "PERFORMER=%albuminterpret%" -T "COMPOSER=%composer%" %haslyrics%--tag-from-file=LYRICS="%lyricsfile%"%haslyrics% -T "ALBUMARTIST=%albumartist%" -T "DISCNUMBER=%cdnumber%" -T "TOTALDISCS=%totalcds%" -T "TOTALTRACKS=%numtracks%" -T "COMMENT=EAC V1.3, Secure Mode, Test & Copy, AccurateRip, FLAC -8" %source% -o %dest%
TOC of the extracted CD
Track | Start | Length | Start sector | End sector --------------------------------------------------------- 1 | 0:00.00 | 4:39.17 | 0 | 20941 2 | 4:39.17 | 3:32.05 | 20942 | 36846 3 | 8:11.22 | 3:25.61 | 36847 | 52282 4 | 11:37.08 | 3:48.00 | 52283 | 69382 5 | 15:25.08 | 4:50.62 | 69383 | 91194 6 | 20:15.70 | 3:38.66 | 91195 | 107610 7 | 23:54.61 | 5:32.72 | 107611 | 132582 8 | 29:27.58 | 5:59.16 | 132583 | 159523 9 | 35:26.74 | 3:53.57 | 159524 | 177055 10 | 39:20.56 | 2:26.65 | 177056 | 188070 11 | 41:47.46 | 4:51.46 | 188071 | 209941
Track 1
Filename F:\FLAC\E\Everything Everything - 2017 - A Fever Dream FLAC\01 - Night Of The Long Knives.wav
Pre-gap length 0:00:02.00
Peak level 97.4 % Extraction speed 1.6 X Track quality 99.9 % Test CRC 49CFCB66 Copy CRC 49CFCB66 Track not present in AccurateRip database Copy OK
Track 2
Filename F:\FLAC\E\Everything Everything - 2017 - A Fever Dream FLAC\02 - Can't Do.wav
Peak level 97.0 % Extraction speed 1.9 X Track quality 100.0 % Test CRC 9106FFD0 Copy CRC 9106FFD0 Track not present in AccurateRip database Copy OK
Track 3
Filename F:\FLAC\E\Everything Everything - 2017 - A Fever Dream FLAC\03 - Desire.wav
Peak level 97.6 % Extraction speed 1.7 X Track quality 99.9 % Test CRC D20593FB Copy CRC D20593FB Track not present in AccurateRip database Copy OK
Track 4
Filename F:\FLAC\E\Everything Everything - 2017 - A Fever Dream FLAC\04 - Big Game.wav
Peak level 97.9 % Extraction speed 2.1 X Track quality 100.0 % Test CRC FCB07DE5 Copy CRC FCB07DE5 Track not present in AccurateRip database Copy OK
Track 5
Filename F:\FLAC\E\Everything Everything - 2017 - A Fever Dream FLAC\05 - Good Shot, Good Soldier.wav
Peak level 98.8 % Extraction speed 2.0 X Track quality 99.9 % Test CRC D622CEC4 Copy CRC D622CEC4 Track not present in AccurateRip database Copy OK
Track 6
Filename F:\FLAC\E\Everything Everything - 2017 - A Fever Dream FLAC\06 - Run The Numbers.wav
Peak level 96.8 % Extraction speed 2.4 X Track quality 100.0 % Test CRC 6C4E5767 Copy CRC 6C4E5767 Track not present in AccurateRip database Copy OK
Track 7
Filename F:\FLAC\E\Everything Everything - 2017 - A Fever Dream FLAC\07 - Put Me Together.wav
Peak level 99.3 % Extraction speed 2.3 X Track quality 99.9 % Test CRC 3C878564 Copy CRC 3C878564 Track not present in AccurateRip database Copy OK
Track 8
Filename F:\FLAC\E\Everything Everything - 2017 - A Fever Dream FLAC\08 - A Fever Dream.wav
Peak level 97.1 % Extraction speed 2.5 X Track quality 99.9 % Test CRC 3CDB8EAF Copy CRC 3CDB8EAF Track not present in AccurateRip database Copy OK
Track 9
Filename F:\FLAC\E\Everything Everything - 2017 - A Fever Dream FLAC\09 - Ivory Tower.wav
Peak level 97.5 % Extraction speed 2.9 X Track quality 100.0 % Test CRC DEFF4A76 Copy CRC DEFF4A76 Track not present in AccurateRip database Copy OK
Track 10
Filename F:\FLAC\E\Everything Everything - 2017 - A Fever Dream FLAC\10 - New Deep.wav
Peak level 78.4 % Extraction speed 2.7 X Track quality 100.0 % Test CRC 9FEEE9AD Copy CRC 9FEEE9AD Track not present in AccurateRip database Copy OK
Track 11
Filename F:\FLAC\E\Everything Everything - 2017 - A Fever Dream FLAC\11 - White Whale.wav
Peak level 96.7 % Extraction speed 3.1 X Track quality 100.0 % Test CRC 29259170 Copy CRC 29259170 Track not present in AccurateRip database Copy OK
None of the tracks are present in the AccurateRip database
No errors occurred
End of status report
---- CUETools DB Plugin V2.1.6
[CTDB TOCID: mAG0FiDV9YVNcr96OeDsAbiEYUk-] foundSubmit result: mAG0FiDV9YVNcr96OeDsAbiEYUk- has been confirmedTrack | CTDB Status 1 | (1/1) Accurately ripped 2 | (1/1) Accurately ripped 3 | (1/1) Accurately ripped 4 | (1/1) Accurately ripped 5 | (1/1) Accurately ripped 6 | (1/1) Accurately ripped 7 | (1/1) Accurately ripped 8 | (1/1) Accurately ripped 9 | (1/1) Accurately ripped 10 | (1/1) Accurately ripped 11 | (1/1) Accurately ripped
==== Log checksum FEEE792D13A71DCB5D2AA90359594D989A1D0092051A00132E4D27764CEB490F ====

Содержание индексной карты (.CUE):

REM GENRE "Alternative"REM DATE 2017REM DISCID A10AEF0BPERFORMER "Everything Everything"TITLE "A Fever Dream"REM DISCNUMBER 1REM TOTALDISCS 1FILE "01 Night of the Long Knives.m4a" WAVE  TRACK 01 AUDIO    PERFORMER "Everything Everything"    TITLE "Night of the Long Knives"    INDEX 01 00:00:00FILE "02 Can't Do.m4a" WAVE  TRACK 02 AUDIO    PERFORMER "Everything Everything"    TITLE "Can't Do"    INDEX 01 00:00:00FILE "03 Desire.m4a" WAVE  TRACK 03 AUDIO    PERFORMER "Everything Everything"    TITLE "Desire"    INDEX 01 00:00:00FILE "04 Big Game.m4a" WAVE  TRACK 04 AUDIO    PERFORMER "Everything Everything"    TITLE "Big Game"    INDEX 01 00:00:00FILE "05 Good Shot, Good Soldier.m4a" WAVE  TRACK 05 AUDIO    PERFORMER "Everything Everything"    TITLE "Good Shot, Good Soldier"    INDEX 01 00:00:00FILE "06 Run the Numbers.m4a" WAVE  TRACK 06 AUDIO    PERFORMER "Everything Everything"    TITLE "Run the Numbers"    INDEX 01 00:00:00FILE "07 Put Me Together.m4a" WAVE  TRACK 07 AUDIO    PERFORMER "Everything Everything"    TITLE "Put Me Together"    INDEX 01 00:00:00FILE "08 A Fever Dream.m4a" WAVE  TRACK 08 AUDIO    PERFORMER "Everything Everything"    TITLE "A Fever Dream"    INDEX 01 00:00:00FILE "09 Ivory Tower.m4a" WAVE  TRACK 09 AUDIO    PERFORMER "Everything Everything"    TITLE "Ivory Tower"    INDEX 01 00:00:00FILE "10 New Deep.m4a" WAVE  TRACK 10 AUDIO    PERFORMER "Everything Everything"    TITLE "New Deep"    INDEX 01 00:00:00FILE "11 White Whale.m4a" WAVE  TRACK 11 AUDIO    PERFORMER "Everything Everything"    TITLE "White Whale"    INDEX 01 00:00:00
-

If you like the topic, please click share to help develop our site.

To download the file disable ad blocking, and reload the page.

disable adblock How to disable ad blocking?

Download by magnet link 1.56 GB Download Torrent

Login using:

Similar topics



   
Current time is: 27-Jun 10:16 :: All times are UTC + 3