Blues Eaters / Night Ridin' Daddy
Жанр: Blues/Jumpin' Blues
Носитель: WEB
Год издания: 2018
Издатель (лейбл): LME Recordz
Страна исполнителя (группы):
Аудиокодек: FLAC (*.flac)
Тип рипа: tracks
Битрейт аудио: lossless
Продолжительность: 51:25
Источник (релизер): Qobuz & I'm
Наличие сканов в содержимом раздачи: front

Tracklist:
01. Stompin' Stuff 03:32
02. Wandering Soul 04:01
03. Still The Same 05:34
04. Outcast 06:08
05. Nurse Radio 02:53
06. Killin' Groove 02:40
07. One Night In New Orleans 03:33
08. Just A Shadow 05:39
09. Never Surrender 04:13
10. Taken Lives 05:37
11. She's Back 03:08
12. Beauty & The Bounder 04:27

Dynamic Range Meter

foobar2000 1.3.16 / Dynamic Range Meter 1.1.1log date: 2018-02-06 09:10:41
--------------------------------------------------------------------------------Analyzed: Blues Eaters / Night Ridin' Daddy--------------------------------------------------------------------------------
DR Peak RMS Duration Track--------------------------------------------------------------------------------DR6 -0.89 dB -8.08 dB 3:32 01-Stompin' StuffDR6 -0.89 dB -8.58 dB 4:01 02-Wandering SoulDR5 -0.89 dB -8.08 dB 5:34 03-Still The SameDR6 -1.39 dB -8.91 dB 6:08 04-OutcastDR6 -1.32 dB -7.98 dB 2:53 05-Nurse RadioDR6 -0.89 dB -8.84 dB 2:40 06-Killin' GrooveDR6 -0.82 dB -7.50 dB 3:33 07-One Night In New OrleansDR8 -1.32 dB -12.79 dB 5:39 08-Just A ShadowDR6 -0.89 dB -7.78 dB 4:13 09-Never SurrenderDR8 -0.89 dB -10.11 dB 5:37 10-Taken LivesDR6 -0.89 dB -7.35 dB 3:08 11-She's BackDR7 -0.89 dB -9.65 dB 4:27 12-Beauty & The Bounder--------------------------------------------------------------------------------
Number of tracks: 12Official DR value: DR6
Samplerate: 44100 HzChannels: 2Bits per sample: 16Bitrate: 813 kbpsCodec: FLAC

Log Quality Checking

PERFORMER: auCDtect Task Manager, ver. 1.6.0 RC1 build 1.6.0.1Copyright (c) 2008-2010 y-soft. All rights reservedhttp://y-soft.org
ANALYZER: auCDtect: CD records authenticity detector, version 0.8.2Copyright (c) 2004 Oleg Berngardt. All rights reserved.Copyright (c) 2004 Alexander Djourik. All rights reserved.
FILE: 01 - Stompin' Stuff.flac Size: 24571687 Hash: 7EBF09A071B84BCCFFD5B2DFA5547797 Accuracy: -m0 Conclusion: CDDA 100% Signature: 99F9328A5B54B59FE3678F6C7C3005AB6EDED92BFILE: 02 - Wandering Soul.flac Size: 28183407 Hash: BF9EF97C4F1B0F67FEE50A51301785AB Accuracy: -m0 Conclusion: CDDA 100% Signature: 27005ACCFB11F0A42E9762C8BBA491DAF0F1F4FFFILE: 03 - Still The Same.flac Size: 39622046 Hash: 93FC7A117B1F99BE13B1805D48CA45D4 Accuracy: -m0 Conclusion: CDDA 100% Signature: BF9B461B401146B4BAD17DABBF6910C7065FA763FILE: 04 - Outcast.flac Size: 42758193 Hash: 6521B5F87EB2EFD50E3AB3B738FE5527 Accuracy: -m0 Conclusion: CDDA 100% Signature: 58793FEA25ECA600908DADB1DECE2622FBF559EDFILE: 05 - Nurse Radio.flac Size: 22674513 Hash: 23AF62D2008C8A2CC6454A8A58612607 Accuracy: -m0 Conclusion: CDDA 100% Signature: F4B3BD78A9FCCB9F36E5A89CCA569AA21DE00FD3FILE: 06 - Killin' Groove.flac Size: 19789829 Hash: CC3D30D4BBDF1C16BDFAAD792A0F5147 Accuracy: -m0 Conclusion: CDDA 100% Signature: 452AEFE15719A7CAFFE4BFAB2E609424C31545A2FILE: 07 - One Night In New Orleans.flac Size: 25240404 Hash: 9413F35D8221B242F788BD15A390402B Accuracy: -m0 Conclusion: CDDA 100% Signature: BA3E33D635F75FB3EB7DF7A75121C697A01E6B18FILE: 08 - Just A Shadow.flac Size: 31707563 Hash: 9F219B13AA4D2FF9DDEF3D19D8D4C716 Accuracy: -m0 Conclusion: CDDA 99% Signature: 99BA7AD96440A107AB9AB85CA711094F3E7A0BDEFILE: 09 - Never Surrender.flac Size: 31538174 Hash: 994431C60D90C6D4B7475D284087F8B0 Accuracy: -m0 Conclusion: CDDA 100% Signature: 9A1A7B1D71AB749445C5869AD9287524F1DDD07DFILE: 10 - Taken Lives.flac Size: 35011889 Hash: 419D069786BB548ABB38223B71D9C36A Accuracy: -m0 Conclusion: CDDA 100% Signature: 395B1EDFD6C2828C84B34BB6D8F89B5E4A12FA52FILE: 11 - She's Back.flac Size: 25340542 Hash: 0B93E0B2A4D84E3B1836BA7C0162F784 Accuracy: -m0 Conclusion: CDDA 100% Signature: 4C977DFFE20E1969CF996E914555AA3A17E3268BFILE: 12 - Beauty & The Bounder.flac Size: 27324354 Hash: 0C45C03BC55393AB6B65313D57786E8F Accuracy: -m0 Conclusion: CDDA 100% Signature: 6A3D5C68B4F24ED94F82C229C788582AD1B259C6
Доп. информация: Просто очень красивый релиз в стиле 30-40-х годов джампинг-блюза от французского джазово-блюзового квартета, сам не ожидал, что мне понравится! Но почему то он так быстро закончился, что обычно так бывает только с понравившимися релизами!

Об исполнителе (группе)

http://www.blues-eaters.fr

Состав

Norman Rosaia - sing, guitar, harmonica
Jonathan Nosalik - sing, lead guitar
Olivier Jaqueline - sing, double bass
Sébastien Courti - sing, drums, percussion

If you like the topic, please click share to help develop our site.

To download the file disable ad blocking, and reload the page.

disable adblock How to disable ad blocking?

Download by magnet link 339 MB Download Torrent

Login using:

Similar topics



   
Current time is: 27-Jun 09:48 :: All times are UTC + 3