Bleeding Gods / Dodekathlon
Жанр: Thrash/Death Metal
Носитель: CD
Год издания: 2018
Издатель (лейбл): Nuclear Blast
Номер по каталогу: NB 4268-2
Страна исполнителя (группы): Netherlands
Аудиокодек: FLAC (*.flac)
Тип рипа: tracks+.cue
Битрейт аудио: lossless
Продолжительность: 00:59:20
Источник (релизер): Hallowed
Наличие сканов в содержимом раздачи: нет
Треклист:
01. Bloodguilt (05:41)
02. Multiple Decapitation (05:23)
03. Beloved Artemis (04:23)
04. From Feast To Beast (05:27)
05. Inhuman Humiliation (04:48)
06. Birds Of Hate (04:08)
07. Savior Of Crete (05:02)
08. Tyrannical Blood (03:38)
09. Seeds Of Distrust (04:48)
10. Tripled Anger (06:54)
11. Hera's Orchard (05:40)
12. Hound Of Hell (03:29)

Лог создания рипа

Exact Audio Copy V1.3 from 2. September 2016
EAC extraction logfile from 3. February 2018, 20:12
Bleeding Gods / Dodekathlon
Used drive : ASUS SDRW-08D2S-U Adapter: 1 ID: 0
Read mode : SecureUtilize accurate stream : YesDefeat audio cache : YesMake use of C2 pointers : No
Read offset correction : 6Overread into Lead-In and Lead-Out : NoFill up missing offset samples with silence : YesDelete leading and trailing silent blocks : NoNull samples used in CRC calculations : YesUsed interface : Native Win32 interface for Win NT & 2000Gap handling : Appended to previous track
Used output format : User Defined EncoderSelected bitrate : 1024 kBit/sQuality : HighAdd ID3 tag : NoCommand line compressor : C:\Program Files (x86)\Exact Audio Copy\flac.exeAdditional command line options : -8 -e -p -V -T "ARTIST=%artist%" -T "TITLE=%title%" -T "ALBUM=%albumtitle%" -T "DATE=%year%" -T "TRACKNUMBER=%tracknr%" -T "GENRE=%genre%" -T "PERFORMER=%albuminterpret%" -T "COMPOSER=%composer%" %haslyrics%--tag-from-file=LYRICS="%lyricsfile%"%haslyrics% -T "ALBUMARTIST=%albumartist%" -T "DISCNUMBER=%cdnumber%" -T "TOTALDISCS=%totalcds%" -T "TOTALTRACKS=%numtracks%" -T "COMMENT=%comment%" %source% -o %dest%
TOC of the extracted CD
Track | Start | Length | Start sector | End sector --------------------------------------------------------- 1 | 0:00.00 | 5:41.02 | 0 | 25576 2 | 5:41.02 | 5:23.49 | 25577 | 49850 3 | 11:04.51 | 4:23.12 | 49851 | 69587 4 | 15:27.63 | 5:27.66 | 69588 | 94178 5 | 20:55.54 | 4:48.65 | 94179 | 115843 6 | 25:44.44 | 4:07.70 | 115844 | 134438 7 | 29:52.39 | 5:02.45 | 134439 | 157133 8 | 34:55.09 | 3:38.00 | 157134 | 173483 9 | 38:33.09 | 4:48.60 | 173484 | 195143 10 | 43:21.69 | 6:54.57 | 195144 | 226250 11 | 50:16.51 | 5:40.25 | 226251 | 251775 12 | 55:57.01 | 3:29.57 | 251776 | 267507
Track 1
Filename I:\Bleeding Gods - Dodekathlon (2018) [FLAC] {NB 4268-2}\01 - Bloodguilt.wav
Pre-gap length 0:00:02.00
Peak level 100.0 % Extraction speed 2.6 X Track quality 100.0 % Test CRC 41C4396F Copy CRC 41C4396F Track not present in AccurateRip database Copy OK
Track 2
Filename I:\Bleeding Gods - Dodekathlon (2018) [FLAC] {NB 4268-2}\02 - Multiple Decapitation.wav
Peak level 100.0 % Extraction speed 2.9 X Track quality 100.0 % Test CRC CF398067 Copy CRC CF398067 Track not present in AccurateRip database Copy OK
Track 3
Filename I:\Bleeding Gods - Dodekathlon (2018) [FLAC] {NB 4268-2}\03 - Beloved by Artemis.wav
Peak level 100.0 % Extraction speed 3.1 X Track quality 100.0 % Test CRC 5D4D9287 Copy CRC 5D4D9287 Track not present in AccurateRip database Copy OK
Track 4
Filename I:\Bleeding Gods - Dodekathlon (2018) [FLAC] {NB 4268-2}\04 - From Feast to Beast.wav
Peak level 99.9 % Extraction speed 3.4 X Track quality 100.0 % Test CRC DED18390 Copy CRC DED18390 Track not present in AccurateRip database Copy OK
Track 5
Filename I:\Bleeding Gods - Dodekathlon (2018) [FLAC] {NB 4268-2}\05 - Inhuman Humiliation.wav
Peak level 100.0 % Extraction speed 3.5 X Track quality 100.0 % Test CRC 6062CC9E Copy CRC 6062CC9E Track not present in AccurateRip database Copy OK
Track 6
Filename I:\Bleeding Gods - Dodekathlon (2018) [FLAC] {NB 4268-2}\06 - Birds of Hate.wav
Peak level 99.9 % Extraction speed 3.7 X Track quality 100.0 % Test CRC C6C35174 Copy CRC C6C35174 Track not present in AccurateRip database Copy OK
Track 7
Filename I:\Bleeding Gods - Dodekathlon (2018) [FLAC] {NB 4268-2}\07 - Saviour of Crete.wav
Peak level 100.0 % Extraction speed 3.9 X Track quality 100.0 % Test CRC FA2E55A3 Copy CRC FA2E55A3 Track not present in AccurateRip database Copy OK
Track 8
Filename I:\Bleeding Gods - Dodekathlon (2018) [FLAC] {NB 4268-2}\08 - Tyrannical Blood.wav
Peak level 99.9 % Extraction speed 3.9 X Track quality 100.0 % Test CRC 4D5F10C6 Copy CRC 4D5F10C6 Track not present in AccurateRip database Copy OK
Track 9
Filename I:\Bleeding Gods - Dodekathlon (2018) [FLAC] {NB 4268-2}\09 - Seeds of Distrust.wav
Peak level 100.0 % Extraction speed 3.7 X Track quality 99.9 % Test CRC 3D5EDDDF Copy CRC 3D5EDDDF Track not present in AccurateRip database Copy OK
Track 10
Filename I:\Bleeding Gods - Dodekathlon (2018) [FLAC] {NB 4268-2}\10 - Tripled Anger.wav
Peak level 100.0 % Extraction speed 4.5 X Track quality 100.0 % Test CRC 700013BC Copy CRC 700013BC Track not present in AccurateRip database Copy OK
Track 11
Filename I:\Bleeding Gods - Dodekathlon (2018) [FLAC] {NB 4268-2}\11 - Hera's Orchard.wav
Peak level 100.0 % Extraction speed 4.6 X Track quality 100.0 % Test CRC 61A9FA48 Copy CRC 61A9FA48 Track not present in AccurateRip database Copy OK
Track 12
Filename I:\Bleeding Gods - Dodekathlon (2018) [FLAC] {NB 4268-2}\12 - Hound of Hell.wav
Peak level 100.0 % Extraction speed 4.5 X Track quality 100.0 % Test CRC 3A3F694B Copy CRC 3A3F694B Track not present in AccurateRip database Copy OK
None of the tracks are present in the AccurateRip database
No errors occurred
End of status report
==== Log checksum 287C00E761BCE4B7D74D5CD1ADBB1477D604B02E9004CC5E12A2F6A327A2D58D ====

Содержание индексной карты (.CUE)

REM GENRE "Death Metal"REM DATE 2018REM DISCID AE0DEE0CREM COMMENT "ExactAudioCopy v1.3"PERFORMER "Bleeding Gods"TITLE "Dodekathlon"REM COMPOSER ""FILE "01 - Bloodguilt.wav" WAVE  TRACK 01 AUDIO    TITLE "Bloodguilt"    PERFORMER "Bleeding Gods"    REM COMPOSER ""    INDEX 01 00:00:00FILE "02 - Multiple Decapitation.wav" WAVE  TRACK 02 AUDIO    TITLE "Multiple Decapitation"    PERFORMER "Bleeding Gods"    REM COMPOSER ""    INDEX 01 00:00:00FILE "03 - Beloved by Artemis.wav" WAVE  TRACK 03 AUDIO    TITLE "Beloved by Artemis"    PERFORMER "Bleeding Gods"    REM COMPOSER ""    INDEX 01 00:00:00FILE "04 - From Feast to Beast.wav" WAVE  TRACK 04 AUDIO    TITLE "From Feast to Beast"    PERFORMER "Bleeding Gods"    REM COMPOSER ""    INDEX 01 00:00:00FILE "05 - Inhuman Humiliation.wav" WAVE  TRACK 05 AUDIO    TITLE "Inhuman Humiliation"    PERFORMER "Bleeding Gods"    REM COMPOSER ""    INDEX 01 00:00:00FILE "06 - Birds of Hate.wav" WAVE  TRACK 06 AUDIO    TITLE "Birds of Hate"    PERFORMER "Bleeding Gods"    REM COMPOSER ""    INDEX 01 00:00:00FILE "07 - Saviour of Crete.wav" WAVE  TRACK 07 AUDIO    TITLE "Saviour of Crete"    PERFORMER "Bleeding Gods"    REM COMPOSER ""    INDEX 01 00:00:00FILE "08 - Tyrannical Blood.wav" WAVE  TRACK 08 AUDIO    TITLE "Tyrannical Blood"    PERFORMER "Bleeding Gods"    REM COMPOSER ""    INDEX 01 00:00:00FILE "09 - Seeds of Distrust.wav" WAVE  TRACK 09 AUDIO    TITLE "Seeds of Distrust"    PERFORMER "Bleeding Gods"    REM COMPOSER ""    INDEX 01 00:00:00FILE "10 - Tripled Anger.wav" WAVE  TRACK 10 AUDIO    TITLE "Tripled Anger"    PERFORMER "Bleeding Gods"    REM COMPOSER ""    INDEX 01 00:00:00FILE "11 - Hera's Orchard.wav" WAVE  TRACK 11 AUDIO    TITLE "Hera's Orchard"    PERFORMER "Bleeding Gods"    REM COMPOSER ""    INDEX 01 00:00:00FILE "12 - Hound of Hell.wav" WAVE  TRACK 12 AUDIO    TITLE "Hound of Hell"    PERFORMER "Bleeding Gods"    REM COMPOSER ""    INDEX 01 00:00:00

Об альбоме (сборнике)

http://********.org/forum/viewtopic.php?t=5505793

If you like the topic, please click share to help develop our site.

To download the file disable ad blocking, and reload the page.

disable adblock How to disable ad blocking?

Download by magnet link 447 MB Download Torrent

Login using:

Similar topics

(Thrash | Death Metal) Needless - Heresy - 2019, MP3, 320 kbps
 92 MB   0 | 0   Yesterday 23:30   0
(Thrash Metal) Soothsayer - Death Radiation - 2019, MP3, 320 kbps
 115 MB   0 | 0   24-Jun-19 17:45   3
(Thrash | Death Metal) Vulgar - H.D.P - 2019, MP3, 320 kbps
 74 MB   0 | 0   19-Jun-19 00:05   0
(Thrash Metal) Phantom Witch - Death As We Know It - 2019, MP3, 320 kbps
 132 MB   0 | 0   19-Jun-19 00:05   3


   
Current time is: 27-Jun 09:50 :: All times are UTC + 3