Мой сын / Mon garçon
Страна: Франция, Бельгия
Жанр: триллер, драма
Год выпуска: 2017
Продолжительность: 01:24:57-Перевод: Профессиональный (многоголосый закадровый)
Субтитры: нет
Оригинальная аудиодорожка: нет-Режиссер: Кристиан Карион / Christian Carion-В ролях: Гийом Кане, Мелани Лоран, Оливье де Бенуа, Антуан Хамель, Mohamed Brikat, Lino Papa, Марк Роберт, Пьер Ланглуа, Tristan Pagès, Христоф Россигнон-Описание: Постоянная занятость Жюльена разрушила его брак. Во время очередной командировки увлечённый карьерист получает страшную новость — его семилетний сын пропал без вести. Отец сам бросается на поиски ребёнка. С каждым новым поворотом событий его ярость возрастает, превращая его в животное, жаждущее расправы.-Качество видео: BDRip | Mon.Garcon.2017.FRENCH.COMPLETE.BLURAY-4FR
Формат видео: AVI
Видео: 720x304 (2.37:1), 23.976 fps, XviD build 73 ~2259 kbps avg, 0.43 bit/pixel
Аудио: 48 kHz, AC3 Dolby Digital, 2/0 (L,R) ch, ~192 kbps-Сэмпл-

MediaInfo


Format                      : AVI
Format/Info                 : Audio Video Interleave
File size                   : 1.46 GiB
Duration                    : 1 h 24 min
Overall bit rate            : 2 461 kb/s
Writing application         : VirtualDubMod 1.5.10.2 (build 2542/release)
Writing library             : VirtualDubMod build 2542/release
Video
ID                          : 0
Format                      : MPEG-4 Visual
Format profile              : Advanced [email protected]
Format settings             : BVOP1 / Custom Matrix
Format settings, BVOP       : 1
Format settings, QPel       : No
Format settings, GMC        : No warppoints
Format settings, Matrix     : Custom
Codec ID                    : XVID
Codec ID/Hint               : XviD
Duration                    : 1 h 24 min
Bit rate                    : 2 259 kb/s
Width                       : 720 pixels
Height                      : 304 pixels
Display aspect ratio        : 2.35:1
Frame rate                  : 23.976 (24000/1001) FPS
Color space                 : YUV
Chroma subsampling          : 4:2:0
Bit depth                   : 8 bits
Scan type                   : Progressive
Compression mode            : Lossy
Bits/(Pixel*Frame)          : 0.431
Stream size                 : 1.34 GiB (92%)
Writing library             : XviD 73
Audio
ID                          : 1
Format                      : AC-3
Format/Info                 : Audio Coding 3
Codec ID                    : 2000
Duration                    : 1 h 24 min
Bit rate mode               : Constant
Bit rate                    : 192 kb/s
Channel(s)                  : 2 channels
Channel positions           : Front: L R
Sampling rate               : 48.0 kHz
Frame rate                  : 31.250 FPS (1536 SPF)
Bit depth                   : 16 bits
Compression mode            : Lossy
Stream size                 : 117 MiB (8%)
Alignment                   : Split accross interleaves
Interleave, duration        : 42  ms (1.00 video frame)
Interleave, preload duratio : 500  ms
Service kind                : Complete Main

Скриншоты


If you like the topic, please click share to help develop our site.

To download the file disable ad blocking, and reload the page.

disable adblock How to disable ad blocking?

Download by magnet link 1.46 GB Download Torrent

Login using:



   
Current time is: 27-Jun 09:24 :: All times are UTC + 3