Тайна Зелёного Холма / Uzbuna na Zelenom Vrhu
Страна: Хорватия
Жанр: семейный, приключения
Год выпуска: 2017
Продолжительность: 01:17:36
Перевод: Субтитры karlivanovich
Перевод 2: Одноголосый закадровый Семён Ващенко
Субтитры: русские, английские
Оригинальная аудиодорожка: хорватский
Режиссер: Чейен Чернич / Čejen Černić / Сejen Сerniс
В ролях: Марко Тосиль, Алекс Ракош, Ян Пентек, Тин Грегорич, Яков Пильек
Описание: "Коко и его друзья проводят летние каникулы на берегу озера в небольшом посёлке Зелёный Холм. Спокойную жизнь посёлка нарушает ряд дерзких ограблений. Под покровом ночи таинственные воры проникают в квартиры местных жителей и выносят оттуда всё ценное. Полиция не спешит реагировать, поэтому за дело берутся юные детективы."
Это очередная экранизация цикла произведений про Коко и его друзей, написанная знаменитым югославским и хорватским детским писателем Иваном Кушаном. На трекере присутствует ещё один фильм про Коко - "Коко и приведения", снятый шестью годами ранее сыном писателя, Даниэлем Кушаном.
Сэмпл: http://multi-up.com/1185752
Качество видео: WEBRip-AVC
Формат видео: MKV
Видео: AVC, 1280*720, 16:9, 25.000 fps, 2500 kbps
Аудио: AC3, 48 kHz, 192 kbps, 2 channels, хорватская
Аудио2: AC3, 48 kHz, 192 kbps, 2 channels, русская
Аудио3: AC3, 48 kHz, 192 kbps, 2 channels, украинская
Формат субтитров: softsub (SRT)

Благодарности!

Перевод - karlivanovich, озвучание - Семён Ващенко.
Организация перевода и озвучания - Minhers76.
Огромное спасибо им за этот труд!

MediaInfo

GeneralUnique ID                                : 201169518304190407443825222930077303106 (0x9757D704FF41BBFECCA5FC32102FC142)Complete name                            : ./Uzbuna.Na.Zelenom.Vrhu.WEBRip[2017].mkvFormat                                   : MatroskaFormat version                           : Version 4 / Version 2File size                                : 1.67 GiBDuration                                 : 1 h 17 minOverall bit rate mode                    : VariableOverall bit rate                         : 3 076 kb/sEncoded date                             : UTC 2018-02-03 12:20:12Writing application                      : mkvmerge v7.4.0 ('Circles') 64bit built on Sep 29 2016 19:14:16Writing library                          : libebml v1.3.3 + libmatroska v1.4.1Copyright                                : stinaComment                                  : upload by stina
VideoID : 1Format : AVCFormat/Info : Advanced Video CodecFormat profile : [email protected] settings : CABAC / 5 Ref FramesFormat settings, CABAC : YesFormat settings, ReFrames : 5 framesCodec ID : V_MPEG4/ISO/AVCDuration : 1 h 17 minBit rate mode : VariableBit rate : 2 500 kb/sMaximum bit rate : 6 000 kb/sWidth : 1 280 pixelsHeight : 720 pixelsDisplay aspect ratio : 16:9Frame rate mode : ConstantFrame rate : 25.000 FPSStandard : PALColor space : YUVChroma subsampling : 4:2:0Bit depth : 8 bitsScan type : ProgressiveBits/(Pixel*Frame) : 0.109Stream size : 1.35 GiB (81%)Writing library : x264 core 148Encoding settings : cabac=1 / ref=5 / deblock=1:0:0 / analyse=0x3:0x113 / me=hex / subme=7 / psy=1 / psy_rd=1.00:0.00 / mixed_ref=1 / me_range=16 / chroma_me=1 / trellis=1 / 8x8dct=1 / cqm=1 / deadzone=21,11 / fast_pskip=1 / chroma_qp_offset=-2 / threads=12 / lookahead_threads=2 / sliced_threads=0 / slices=1 / nr=0 / decimate=1 / interlaced=0 / minigop=0 / stitchable=1 / constrained_intra=0 / bframes=3 / b_pyramid=0 / b_adapt=1 / b_bias=0 / direct=1 / weightb=1 / open_gop=1 / weightp=2 / keyint=300 / keyint_min=25 / scenecut=40 / intra_refresh=0 / rc_lookahead=40 / rc=2pass / mbtree=1 / bitrate=2500 / ratetol=1.0 / qcomp=0.60 / qpmin=3 / qpmax=69 / qpstep=4 / cplxblur=20.0 / qblur=0.5 / vbv_maxrate=6000 / vbv_bufsize=6000 / nal_hrd=vbr / filler=0 / ip_ratio=1.40 / aq=1:1.00Default : YesForced : NoColor range : LimitedColor primaries : BT.709Transfer characteristics : BT.709Matrix coefficients : BT.709
Audio #1ID : 2Format : AC-3Format/Info : Audio Coding 3Codec ID : A_AC3Duration : 1 h 17 minBit rate mode : ConstantBit rate : 192 kb/sChannel(s) : 2 channelsChannel positions : Front: L RSampling rate : 48.0 kHzFrame rate : 31.250 FPS (1536 SPF)Bit depth : 16 bitsCompression mode : LossyStream size : 107 MiB (6%)Language : RussianService kind : Complete MainDefault : NoForced : No
Audio #2ID : 3Format : AC-3Format/Info : Audio Coding 3Codec ID : A_AC3Duration : 1 h 17 minBit rate mode : ConstantBit rate : 192 kb/sChannel(s) : 2 channelsChannel positions : Front: L RSampling rate : 44.1 kHzFrame rate : 28.711 FPS (1536 SPF)Bit depth : 16 bitsCompression mode : LossyStream size : 107 MiB (6%)Language : UkrainianService kind : Complete MainDefault : NoForced : No
Audio #3ID : 4Format : AC-3Format/Info : Audio Coding 3Codec ID : A_AC3Duration : 1 h 17 minBit rate mode : ConstantBit rate : 192 kb/sChannel(s) : 2 channelsChannel positions : Front: L RSampling rate : 48.0 kHzFrame rate : 31.250 FPS (1536 SPF)Bit depth : 16 bitsCompression mode : LossyStream size : 107 MiB (6%)Language : CroatianService kind : Complete MainDefault : YesForced : No
Text #1ID : 5Format : UTF-8Codec ID : S_TEXT/UTF8Codec ID/Info : UTF-8 Plain TextDuration : 1 h 13 minBit rate : 73 b/sCount of elements : 761Stream size : 39.9 KiB (0%)Language : RussianDefault : YesForced : No
Text #2ID : 6Format : UTF-8Codec ID : S_TEXT/UTF8Codec ID/Info : UTF-8 Plain TextDuration : 1 h 14 minBit rate : 45 b/sCount of elements : 897Stream size : 24.7 KiB (0%)Language : EnglishDefault : NoForced : No
Menu

Скриншот c названием фильма

Скриншоты с субтитрами

Скриншоты


If you like the topic, please click share to help develop our site.

To download the file disable ad blocking, and reload the page.

disable adblock How to disable ad blocking?

Download by magnet link 1.67 GB Download Torrent

Login using:

Similar topics



   
Current time is: 23-Apr 15:41 :: All times are UTC + 3