Жасмин - Долгие дни
Жанр: Pop
Носитель: CD
Страна-производитель диска (релиза): РФ
Год издания: 2000
Аудиокодек: Monkey's Audio Compressor (*.ape)
Тип рипа: image + .cue
Битрейт аудио: lossless
Продолжительность: 00:46:27
Источник (релизер): Личный CD rip
Наличие сканов в содержимом раздачи: нет
-
Треклист:
01 - Долгие дни
02 - Летний день
03 - Так бывает
04 - Падал снег
05 - Ангел
06 - Молодой месяц
07 - Не привыкать
08 - Дождь за окном
09 - Каприз
10 - Не жди меня
11 - Но только для тебя
12 - Падал снег (remix)
-

EAC

Exact Audio Copy V1.3 from 2. September 2016
Отчёт EAC об извлечении, выполненном 3. февраля 2018, 10:41
Жасмин / Долгие дни
Дисковод: HL-DT-STDVDRAM GSA-T20N Adapter: 1 ID: 0
Режим чтения : ДостоверностьИспользование точного потока : ДаОтключение кэша аудио : ДаИспользование указателей C2 : Нет
Коррекция смещения при чтении : 667Способность читать области Lead-in и Lead-out : НетЗаполнение пропущенных сэмплов тишиной : ДаУдаление блоков с тишиной в начале и конце : НетПри вычислениях CRC использовались нулевые сэмплы : ДаИнтерфейс : Встроенный Win32-интерфейс для Win NT/2000
Выходной формат : Пользовательский кодировщикВыбранный битрейт : 768 kBit/sКачество : ВысокийДобавление ID3-тега : НетУтилита сжатия : { M } onkey's { A } udio { C } ompressor (версия 4.33 - декабрь 2017).exeДополнительные параметры : %dest% -t "DiscID=%cddbid%" -t "Comment= ~ ^ ` @ трудился РУ€_ик @ ` ^ ~ " -t "Artist=%artist%" -t "Album=%albumtitle%" -t "Album Artist=%albumartist%" -t "Year=%year%" -t "Genre=%genre%" MAC.exe %source% %dest% -c4000 -V
TOC извлечённого CD
Трек | Старт | Длительность | Начальный сектор | Конечный сектор --------------------------------------------------------------------- 1 | 0:00.00 | 4:38.10 | 0 | 20859 2 | 4:38.10 | 3:35.24 | 20860 | 37008 3 | 8:13.34 | 4:25.65 | 37009 | 56948 4 | 12:39.24 | 4:15.42 | 56949 | 76115 5 | 16:54.66 | 3:25.02 | 76116 | 91492 6 | 20:19.68 | 4:16.57 | 91493 | 110749 7 | 24:36.50 | 3:50.74 | 110750 | 128073 8 | 28:27.49 | 3:24.49 | 128074 | 143422 9 | 31:52.23 | 3:50.01 | 143423 | 160673 10 | 35:42.24 | 4:25.57 | 160674 | 180605 11 | 40:08.06 | 3:05.15 | 180606 | 194495 12 | 43:13.21 | 3:13.04 | 194496 | 208974 13 | 48:58.25 | 4:53.03 | 220375 | 242352
Характеристики диапазона извлечения и сообщения об ошибках
Выбранный диапазон
Имя файла C:\РУ€_ик\Жасмин - Долгие дни.wav
Пиковый уровень 100.0 % Скорость извлечения 2.7 X Качество диапазона 100.0 % CRC теста 2E5B352A CRC копии 2E5B352A Копирование... OK
Ошибок не произошло
AccurateRip: сводка
Трек 1 : извлечено точно (доверие 1) [A7ED4FEB] (AR v2)Трек 2 : извлечено точно (доверие 1) [F7C8DE50] (AR v2)Трек 3 : извлечено точно (доверие 1) [4845E46C] (AR v2)Трек 4 : извлечено точно (доверие 1) [D04FA24B] (AR v2)Трек 5 : извлечено точно (доверие 1) [844853D1] (AR v2)Трек 6 : извлечено точно (доверие 1) [900AE8B0] (AR v2)Трек 7 : извлечено точно (доверие 1) [063AA359] (AR v2)Трек 8 : извлечено точно (доверие 1) [9DEF9591] (AR v2)Трек 9 : извлечено точно (доверие 1) [84DFF789] (AR v2)Трек 10 : извлечено точно (доверие 1) [5F3202FB] (AR v2)Трек 11 : извлечено точно (доверие 1) [D0836A55] (AR v2)Трек 12 : извлечено точно (доверие 1) [41A79956] (AR v2)
Все треки извлечены точно
Конец отчёта
---- CUETools DB Plugin V2.1.6
[CTDB TOCID: 74J4Qo.ncF9LHJ4gghuo98tVdak-] foundSubmit result: 74J4Qo.ncF9LHJ4gghuo98tVdak- has been confirmedTrack | CTDB Status 1 | (2/2) Accurately ripped 2 | (2/2) Accurately ripped 3 | (2/2) Accurately ripped 4 | (2/2) Accurately ripped 5 | (2/2) Accurately ripped 6 | (2/2) Accurately ripped 7 | (2/2) Accurately ripped 8 | (1/2) Accurately ripped 9 | (2/2) Accurately ripped 10 | (1/2) Accurately ripped 11 | (1/2) Accurately ripped 12 | (1/2) Accurately ripped
==== Контрольная сумма отчёта C9CF8E7D9E2038A0ADDF9CA983D239E06D93DDBE2DFEA47CE9B4F28A63F65291 ====



If you like the topic, please click share to help develop our site.

To download the file disable ad blocking, and reload the page.

disable adblock How to disable ad blocking?

Download by magnet link 308 MB Download Torrent

Login using:

Similar topics



   
Current time is: 27-Jun 09:29 :: All times are UTC + 3