Dua Lipa - Dua Lipa (Japan)
Жанр: Pop
Носитель: CD
Страна-производитель диска (релиза): Япония
Год издания: 2017
Аудиокодек: Monkey's Audio Compressor (*.ape)
Тип рипа: image + .cue
Битрейт аудио: lossless
Продолжительность: 01:07:50
Источник (релизер): Личный CD rip
Наличие сканов в содержимом раздачи: нет
-
Треклист:
01 - Genesis
02 - Lost in Your Light
03 - Hotter Than Hell
04 - Be the One
05 - IDGAF
06 - Blow Your Mind (Mwah)
07 - Garden
08 - No Goodbyes
09 - Thinking 'Bout You
10 - New Rules
11 - Begging
12 - HomeSick
13 - Dreams (DE bonus track)
14 - Room for 2 (DE bonus track)
15 - New Love (DE bonus track)
16 - Bad Together (DE bonus track)
17 - Last Dance (DE bonus track)
18 - Hotter Than Hell (Miike Snow remix) (Japan bonus track)
19 - For Julian (Japan bonus track)

EAC

Exact Audio Copy V1.3 from 2. September 2016
Отчёт EAC об извлечении, выполненном 4. февраля 2018, 18:26
Dua Lipa / Dua Lipa (Japan)
Дисковод: HL-DT-STDVDRAM GSA-T20N Adapter: 1 ID: 0
Режим чтения : ДостоверностьИспользование точного потока : ДаОтключение кэша аудио : ДаИспользование указателей C2 : Нет
Коррекция смещения при чтении : 667Способность читать области Lead-in и Lead-out : НетЗаполнение пропущенных сэмплов тишиной : ДаУдаление блоков с тишиной в начале и конце : НетПри вычислениях CRC использовались нулевые сэмплы : ДаИнтерфейс : Встроенный Win32-интерфейс для Win NT/2000
Выходной формат : Пользовательский кодировщикВыбранный битрейт : 768 kBit/sКачество : ВысокийДобавление ID3-тега : НетУтилита сжатия : { M } onkey's { A } udio { C } ompressor (версия 4.33 - декабрь 2017).exeДополнительные параметры : %dest% -t "DiscID=%cddbid%" -t "Comment= ~ ^ ` @ трудился РУ€_ик @ ` ^ ~ " -t "Artist=%artist%" -t "Album=%albumtitle%" -t "Album Artist=%albumartist%" -t "Year=%year%" -t "Genre=%genre%" MAC.exe %source% %dest% -c4000 -V
TOC извлечённого CD
Трек | Старт | Длительность | Начальный сектор | Конечный сектор --------------------------------------------------------------------- 1 | 0:00.00 | 3:26.54 | 0 | 15503 2 | 3:26.54 | 3:23.55 | 15504 | 30783 3 | 6:50.34 | 3:10.07 | 30784 | 45040 4 | 10:00.41 | 3:24.64 | 45041 | 60404 5 | 13:25.30 | 3:38.13 | 60405 | 76767 6 | 17:03.43 | 2:59.29 | 76768 | 90221 7 | 20:02.72 | 3:47.71 | 90222 | 107317 8 | 23:50.68 | 3:36.06 | 107318 | 123523 9 | 27:26.74 | 2:52.47 | 123524 | 136470 10 | 30:19.46 | 3:32.00 | 136471 | 152370 11 | 33:51.46 | 3:14.07 | 152371 | 166927 12 | 37:05.53 | 3:50.37 | 166928 | 184214 13 | 40:56.15 | 3:40.18 | 184215 | 200732 14 | 44:36.33 | 3:30.54 | 200733 | 216536 15 | 48:07.12 | 4:02.37 | 216537 | 234723 16 | 52:09.49 | 3:58.62 | 234724 | 252635 17 | 56:08.36 | 3:51.46 | 252636 | 270006 18 | 60:00.07 | 4:13.11 | 270007 | 288992 19 | 64:13.18 | 3:37.07 | 288993 | 305274
Характеристики диапазона извлечения и сообщения об ошибках
Выбранный диапазон
Имя файла C:\РУ€_ик\Dua Lipa (Japan).wav
Пиковый уровень 99.9 % Скорость извлечения 3.1 X Качество диапазона 99.9 % CRC теста 3666393D CRC копии 3666393D Копирование... OK
Ошибок не произошло
AccurateRip: сводка
Трек 1 : извлечено точно (доверие 2) [3C68FA0D] (AR v2)Трек 2 : извлечено точно (доверие 2) [93F0CC54] (AR v2)Трек 3 : извлечено точно (доверие 3) [F1D6F8D6] (AR v2)Трек 4 : извлечено точно (доверие 3) [14069F60] (AR v2)Трек 5 : извлечено точно (доверие 3) [9450636F] (AR v2)Трек 6 : извлечено точно (доверие 2) [69D604FA] (AR v2)Трек 7 : извлечено точно (доверие 2) [4E9389C2] (AR v2)Трек 8 : извлечено точно (доверие 2) [3E480ED9] (AR v2)Трек 9 : извлечено точно (доверие 2) [216CB5FA] (AR v2)Трек 10 : извлечено точно (доверие 2) [2ED26661] (AR v2)Трек 11 : извлечено точно (доверие 2) [FBA1CA4F] (AR v2)Трек 12 : извлечено точно (доверие 2) [B50FB927] (AR v2)Трек 13 : извлечено точно (доверие 2) [597AC196] (AR v2)Трек 14 : извлечено точно (доверие 2) [07A96678] (AR v2)Трек 15 : извлечено точно (доверие 3) [A9E27722] (AR v2)Трек 16 : извлечено точно (доверие 2) [17F71262] (AR v2)Трек 17 : извлечено точно (доверие 2) [DB1B109A] (AR v2)Трек 18 : извлечено точно (доверие 3) [A872C6F8] (AR v2)Трек 19 : извлечено точно (доверие 2) [057E6C8C] (AR v2)
Все треки извлечены точно
Конец отчёта
---- CUETools DB Plugin V2.1.6
[CTDB TOCID: T7lOq0GDoOb3lIbDe1CHAMA0tdg-] foundSubmit result: T7lOq0GDoOb3lIbDe1CHAMA0tdg- has been confirmedTrack | CTDB Status 1 | (12/12) Accurately ripped 2 | (12/12) Accurately ripped 3 | (12/12) Accurately ripped 4 | (12/12) Accurately ripped 5 | (12/12) Accurately ripped 6 | (12/12) Accurately ripped 7 | (12/12) Accurately ripped 8 | (12/12) Accurately ripped 9 | (12/12) Accurately ripped 10 | (12/12) Accurately ripped 11 | (12/12) Accurately ripped 12 | (12/12) Accurately ripped 13 | (12/12) Accurately ripped 14 | (12/12) Accurately ripped 15 | (12/12) Accurately ripped 16 | (12/12) Accurately ripped 17 | (12/12) Accurately ripped 18 | (12/12) Accurately ripped 19 | (12/12) Accurately ripped
==== Контрольная сумма отчёта 911A4EA5078512DAC1D904B3F78C57B97ACC0482A4B64DC43D74433511A35923 ====


If you like the topic, please click share to help develop our site.

To download the file disable ad blocking, and reload the page.

disable adblock How to disable ad blocking?

Download by magnet link 445 MB Download Torrent

Login using:

Similar topics



   
Current time is: 27-Jun 09:38 :: All times are UTC + 3