Irene Grandi / Irene Grandi
Жанр: Pop
Носитель: CD
Страна-производитель диска (релиза): Germany
Год издания: 1994
Издатель (лейбл): CGD S.p.A. - Warner Music Group
Номер по каталогу: 4509-95632-2
Страна исполнителя (группы): Italy
Аудиокодек: FLAC (*.flac)
Тип рипа: image+.cue
Битрейт аудио: lossless
Продолжительность: 00:39:53
Источник (релизер): Свой диск
Наличие сканов в содержимом раздачи: да
Треклист:
01. Sposati Subito
02. Mille
03. Vai Vai Vai
04. Fuori
05. Un Motivo Maledetto
06. T.V.B.
07. (You Make Me Feel Like) A Natural Woman
08. La Cucina
09. Cose Da Grandi

Лог создания рипа

Exact Audio Copy V1.3 from 2. September 2016
EAC extraction logfile from 29. January 2018, 22:36
Irene Grandi / Irene Grandi
Used drive : PIONEER BD-RW BDR-208D Adapter: 1 ID: 0
Read mode : SecureUtilize accurate stream : YesDefeat audio cache : YesMake use of C2 pointers : No
Read offset correction : 667Overread into Lead-In and Lead-Out : NoFill up missing offset samples with silence : YesDelete leading and trailing silent blocks : NoNull samples used in CRC calculations : YesUsed interface : Native Win32 interface for Win NT & 2000
Used output format : User Defined EncoderSelected bitrate : 768 kBit/sQuality : HighAdd ID3 tag : NoCommand line compressor : C:\Program\FLAC\flac.exeAdditional command line options : -V -8 -T "Date=%year%" -T "Genre=%genre%" %source%
TOC of the extracted CD
Track | Start | Length | Start sector | End sector --------------------------------------------------------- 1 | 0:00.00 | 4:57.25 | 0 | 22299 2 | 4:57.25 | 4:17.12 | 22300 | 41586 3 | 9:14.37 | 5:06.35 | 41587 | 64571 4 | 14:20.72 | 4:18.10 | 64572 | 83931 5 | 18:39.07 | 4:33.48 | 83932 | 104454 6 | 23:12.55 | 3:53.52 | 104455 | 121981 7 | 27:06.32 | 3:37.08 | 121982 | 138264 8 | 30:43.40 | 3:39.32 | 138265 | 154721 9 | 34:22.72 | 5:30.15 | 154722 | 179486
Range status and errors
Selected range
Filename C:\Documents and Settings\VASILIY\Mina dokument\Irene Grandi - Irene Grandi.wav
Peak level 98.8 % Extraction speed 6.5 X Range quality 100.0 % Test CRC C9A9CA8F Copy CRC C9A9CA8F Copy OK
No errors occurred
AccurateRip summary
Track 1 accurately ripped (confidence 8) [B3A8D955] (AR v2)Track 2 accurately ripped (confidence 8) [B717B6A3] (AR v2)Track 3 accurately ripped (confidence 8) [34AAEFE0] (AR v2)Track 4 accurately ripped (confidence 8) [A3E735FA] (AR v2)Track 5 accurately ripped (confidence 8) [C5D21459] (AR v2)Track 6 accurately ripped (confidence 8) [6742B291] (AR v2)Track 7 accurately ripped (confidence 8) [0233DD2F] (AR v2)Track 8 accurately ripped (confidence 8) [F6390900] (AR v2)Track 9 accurately ripped (confidence 8) [60BC229C] (AR v2)
All tracks accurately ripped
End of status report
==== Log checksum C361114A5801B1F6AD4B02C388CEEFFD5AF9E03851A6D1A2F5583CC09765A6B0 ====

Об альбоме (сборнике)

https://www.discogs.com/Irene-Grandi-Irene-Grandi/release/3211471

If you like the topic, please click share to help develop our site.

To download the file disable ad blocking, and reload the page.

disable adblock How to disable ad blocking?

Download by magnet link 359 MB Download Torrent

Login using:

Similar topics



   
Current time is: 27-Jun 10:15 :: All times are UTC + 3